+12

Контрабандистки / Milsu / Smugglers (2023) BDRip 1080p от DoMiNo & селезень | P

Информация о фильме
Название: Контрабандистки
Оригинальное название: Milsu / Smugglers
Год выпуска: 2023
Жанр: Боевик, криминал, комедия
Режиссер: Рю Сын-ван / Ryoo Seung-wan
В ролях: Ким Хе-су, Ём Джон-а, Чо Ин-сон, Ко Мин-щи, Пак Чон-мин, Ким Джон-су, Ким Джэ-хва, Пак Кён-хе, Ли Джин-хи, Ли До-гун, Щим Со-ён, Квак Чин-сок, Юн Гён-хо, Ли Сон-хи, Брайан М. ван Хисе

О фильме:
1970-е, прибрежный городок Кунчхон. Решив поднимать со дна нелегальные грузы, группа ныряльщиц вскоре привлекает внимание начальника местной таможни. Тот устраивает облаву, во время которой происходит ужасный несчастный случай, пойманные девушки получают сроки, и только Чо Чхун-джа умудряется сбежать. Два года спустя, промышляя контрабандой Сеуле, Чхун-джа попадает в поле зрения влиятельного и опасного конкурента — сержанта Квона — и делает ему предложение, от которого невозможно отказаться: переправлять грузы не через Пусанский порт, а через Кунчхон. Только для этого ей придется наладить отношения со старой командой, которая уверена, что это Чхун-джа сдала их два года назад.

Выпущено: Южная Корея / Next Entertainment World, Filmmaker R&K
Продолжительность: 02:09:42
Перевод 1: Профессиональный (многоголосый, закадровый) | Кинопоиск HD
Перевод 2: Профессиональный (многоголосый, закадровый) | Jaskier
Субтитры: Русские (Full), Английские

Файл
Формат: Matroska
Качество: BDRip 1080p
Видео: 1920x802 at 23.976 fps, [email protected], ~11000 kbps
Аудио 1: AC3, 6 ch, ~448 kbps - | Русский | Контрабандистки / Milsu / Smugglers (2023) BDRip 1080p от DoMiNo & селезень | P | Кинопоиск HD
Аудио 2: AC3, 6 ch, ~384 kbps - | Русский | | Jaskier
Аудио 3: DTS, 6 ch, 1509 Kbps - | Корейский |
Формат субтитров: softsub (SRT)

Авторизуйтесь для получения доступа к скачиванию

Нет аккаунта? Регистрация открыта и займёт меньше минуты

Вход Регистрация

General
Unique ID : 137958133338058158066270274225702809913 (0x67C9C51F299F373E0A16B75A877DB139)
Complete name : K:Smugglers.2023.2xMVO.BDRip.1080p.x264.seleZen.mkv
Format : Matroska
Format version : Version 4
File size : 12.1 GiB
Duration : 2 h 9 min
Overall bit rate : 13.3 Mb/s
Frame rate : 23.976 FPS
Movie name : Smugglers.2023.2xMVO.BDRip.1080p.x264.seleZen
Encoded date : 2024-07-08 06:20:39 UTC
Writing application : mkvmerge v85.0 ('Shame For You') 64-bit
Writing library : libebml v1.4.5 + libmatroska v1.7.1
Cover : Yes
Attachments : cover.jpg / small_cover.jpg

Video
ID : 1
Format : AVC
Format/Info : Advanced Video Codec
Format profile : [email protected]
Format settings : CABAC / 5 Ref Frames
Format settings, CABAC : Yes
Format settings, Reference : 5 frames
Codec ID : V_MPEG4/ISO/AVC
Duration : 2 h 9 min
Bit rate : 11.0 Mb/s
Width : 1 920 pixels
Height : 802 pixels
Display aspect ratio : 2.39:1
Frame rate mode : Constant
Frame rate : 23.976 (24000/1001) FPS
Color space : YUV
Chroma subsampling : 4:2:0
Bit depth : 8 bits
Scan type : Progressive
Bits/(Pixel*Frame) : 0.297
Stream size : 9.95 GiB (82%)
Title : -=DoMiNo=-
Writing library : x264 core 164 r3179+58M 2d8d988 t_mod_New [(8 & 10)-DoMiNo- X86_64]
Encoding settings : cabac=1 / ref=5 / deblock=1:-2:-2 / analyse=0x3:0x133 / me=umh / subme=10 / psy=1 / fade_compensate=0.00 / psy_rd=1.03:0.02 / mixed_ref=1 / me_range=32 / chroma_me=1 / trellis=2 / 8x8dct=1 / cqm=0 / deadzone=21,11 / fast_pskip=0 / chroma_qp_offset=-3 / threads=24 / lookahead_threads=6 / sliced_threads=0 / nr=0 / decimate=0 / interlaced=0 / bluray_compat=0 / constrained_intra=0 / fgo=0 / bframes=10 / b_pyramid=2 / b_adapt=2 / b_bias=0 / direct=1 / weightb=1 / open_gop=0 / weightp=2 / keyint=250 / keyint_min=23 / scenecut=40 / intra_refresh=0 / rc_lookahead=60 / rc=crf / mbtree=0 / crf=17.5000 / qcomp=0.60 / qpmin=0:0:0 / qpmax=69:69:69 / qpstep=4 / vbv_maxrate=50000 / vbv_bufsize=62500 / crf_max=0.0 / nal_hrd=none / filler=0 / ip_ratio=1.40 / pb_ratio=1.30 / aq=3:0.80 / aq-sensitivity=10.00 / aq-factor=1.00:1.00:1.00:1.00 / aq2=0 / aq3=0
Language : Korean
Default : Yes
Forced : No

Audio #1
ID : 2
Format : AC-3
Format/Info : Audio Coding 3
Commercial name : Dolby Digital
Codec ID : A_AC3
Duration : 2 h 9 min
Bit rate mode : Constant
Bit rate : 448 kb/s
Channel(s) : 6 channels
Channel layout : L R C LFE Ls Rs
Sampling rate : 48.0 kHz
Frame rate : 31.250 FPS (1536 SPF)
Compression mode : Lossy
Stream size : 416 MiB (3%)
Title : MVO -Кинопоиск HD
Language : Russian
Service kind : Complete Main
Default : Yes
Forced : No
Dialog Normalization : -24 dB
compr : -0.28 dB
cmixlev : -3.0 dB
surmixlev : -3 dB
mixlevel : 285 dB
roomtyp : 3
ltrtcmixlev : -3.0 dB
ltrtsurmixlev : -3.0 dB
lorocmixlev : -3.0 dB
lorosurmixlev : -4.5 dB
dialnorm_Average : -24 dB
dialnorm_Minimum : -24 dB
dialnorm_Maximum : -24 dB

Audio #2
ID : 3
Format : AC-3
Format/Info : Audio Coding 3
Commercial name : Dolby Digital
Codec ID : A_AC3
Duration : 2 h 9 min
Bit rate mode : Constant
Bit rate : 384 kb/s
Channel(s) : 6 channels
Channel layout : L R C LFE Ls Rs
Sampling rate : 48.0 kHz
Frame rate : 31.250 FPS (1536 SPF)
Compression mode : Lossy
Stream size : 356 MiB (3%)
Title : MVO -Jaskier
Language : Russian
Service kind : Complete Main
Default : No
Forced : No
Dialog Normalization : -31 dB
cmixlev : -4.5 dB
surmixlev : -6 dB
dialnorm_Average : -31 dB
dialnorm_Minimum : -31 dB
dialnorm_Maximum : -31 dB

Audio #3
ID : 4
Format : DTS
Format/Info : Digital Theater Systems
Codec ID : A_DTS
Duration : 2 h 9 min
Bit rate mode : Constant
Bit rate : 1 509 kb/s
Channel(s) : 6 channels
Channel layout : C L R Ls Rs LFE
Sampling rate : 48.0 kHz
Frame rate : 93.750 FPS (512 SPF)
Bit depth : 16 bits
Compression mode : Lossy
Stream size : 1.37 GiB (11%)
Title : Original
Language : Korean
Default : No
Forced : No

Text #1
ID : 5
Format : UTF-8
Codec ID : S_TEXT/UTF8
Codec ID/Info : UTF-8 Plain Text
Duration : 2 h 4 min
Bit rate : 64 b/s
Frame rate : 0.171 FPS
Count of elements : 1276
Stream size : 58.3 KiB (0%)
Title : Full
Language : Russian
Default : No
Forced : No

Text #2
ID : 6
Format : UTF-8
Codec ID : S_TEXT/UTF8
Codec ID/Info : UTF-8 Plain Text
Duration : 2 h 4 min
Bit rate : 44 b/s
Frame rate : 0.183 FPS
Count of elements : 1361
Stream size : 40.3 KiB (0%)
Language : English
Default : No
Forced : No

Menu
00:00:00.000 : en:Chapter 01
00:11:44.245 : en:Chapter 02
00:23:36.832 : en:Chapter 03
00:34:00.288 : en:Chapter 04
00:45:16.171 : en:Chapter 05
00:55:29.701 : en:Chapter 06
01:06:19.725 : en:Chapter 07
01:17:05.954 : en:Chapter 08
01:27:58.606 : en:Chapter 09
01:39:06.315 : en:Chapter 10
01:50:56.566 : en:Chapter 11
02:03:44.083 : en:Chapter 12

Другие фильмы
У данной публикации пока нет комментариев.
Будь первым, оставь своё мнение в комментариях!
Информация
Посетители, находящиеся в группе Гости, не могут оставлять комментарии к данной публикации.
Самый популярный релиз недели
Донаты
Мы в соц. сетях / RSS

Лучшие релизы месяца
Лучшие SD недели
Лучшие 720p недели
Лучшие 1080p недели
Лучшие 4K недели
Вы недавно смотрели
Реклама
Последние комментарии
...

rmzshka

12 июля 2024 11:30

...

Rustik99

12 июля 2024 10:11

...

-=DoMiNo=-

11 июля 2024 23:42

...

rmzshka

11 июля 2024 11:28

...

-=DoMiNo=-

10 июля 2024 15:08

Реклама