+20

Артур, ты король / Arthur the King (2024) BDRip 720p от DoMiNo & селезень | D

Информация о фильме
Название: Артур, ты король
Оригинальное название: Arthur the King
Год выпуска: 2024
Жанр: драма, приключения
Режиссер: Саймон Селлан Джонс / Simon Cellan Jones
В ролях: Марк Уолберг, Симу Лю, Джульет Райлэнс, Натали Эммануэль, Али Сулиман, Беар Гриллс, Пол Гилфойл, Роб Коллинз, Карлтон Бёрд, Сиси Валентина

О фильме:
Это было последнее соревнование капитана по приключенческим гонкам Майкла Линднорда, он был полон решимости ничему не позволить встать у него на пути. Собрав первоклассную команду, он не мог и представить, что в 700-километровом забеге у них появится неожиданный попутчик — пес по кличке Артур, встреча с которым изменит не только исход гонки, но и их жизнь.

Выпущено: США / Lionsgate, Tooley Productions
Продолжительность: 01:47:03
Перевод: Дублированный | Мосфильм-Мастер
Субтитры: Русские (Forced, full (by Enigma)), английские

Файл
Формат: Matroska
Качество: BDRip 720p | Исх.Arthur.the.King.2024.1080p.Blu-ray.Remux.AVC.TrueHD.Atmos.7.1-CiNEPHiLES
Видео: 1280×534 at 23.976 fps, [email protected], ~3299 kbps
Аудио 1: AC3, 6 ch, ~448 kbps — | Русский | Артур, ты король / Arthur the King (2024) BDRip 720p от DoMiNo & селезень | D
Аудио 2: E-AC3, 6 ch, ~448 kbps — | Русский |
Аудио 3: AC3, 6 ch, ~640 kbps — | Английский |
Формат субтитров: softsub (SRT)

Авторизуйтесь для получения доступа к скачиванию

Нет аккаунта? Регистрация открыта и займёт меньше минуты

Вход Регистрация

General
Unique ID: 40173226261769910427913003027541403829 (0×1E3914FA26F2366E6EE1D367C90228B5)
Complete name: S: Arthur.the.King.2024.DUB.BDRip.720p.x264.seleZen.mkv
Format: Matroska
Format version: Version 4
File size: 3.62 GiB
Duration: 1 h 47 min
Overall bit rate: 4 838 kb/s
Frame rate: 23.976 FPS
Movie name: Arthur.the.King.2024.DUB.BDRip.720p.x264.seleZen
Encoded date: 21.05.2024 10:09:13 UTC
Writing application: mkvmerge v84.0 ('Sleeper') 64-bit
Writing library: libebml v1.4.5 + libmatroska v1.7.1
Cover: Yes
Attachments: cover.jpg / small_cover.jpg

Video
ID: 1
Format: AVC
Format/Info: Advanced Video Codec
Format profile: [email protected]
Format settings: CABAC / 12 Ref Frames
Format settings, CABAC: Yes
Format settings, Reference: 12 frames
Codec ID: V_MPEG4/ISO/AVC
Duration: 1 h 47 min
Bit rate: 3 299 kb/s
Width: 1 280 pixels
Height: 534 pixels
Display aspect ratio: 2.40:1
Frame rate mode: Constant
Frame rate: 23.976 (24000/1001) FPS
Color space: YUV
Chroma subsampling: 4:2:0
Bit depth: 8 bits
Scan type: Progressive
Bits/(Pixel*Frame): 0.201
Stream size: 2.47 GiB (68%)
Title: -=DoMiNo=-
Writing library: x264 core 164 r3191 4613ac3
Encoding settings: cabac=1 / ref=12 / deblock=1:-2:-2 / analyse=0×3:0×133 / me=umh / subme=11 / psy=1 / psy_rd=1.05:0.03 / mixed_ref=1 / me_range=32 / chroma_me=1 / trellis=2 / 8×8dct=1 / cqm=0 / deadzone=21,11 / fast_pskip=0 / chroma_qp_offset=-3 / threads=17 / lookahead_threads=4 / sliced_threads=0 / nr=0 / decimate=1 / interlaced=0 / bluray_compat=0 / constrained_intra=0 / bframes=12 / b_pyramid=2 / b_adapt=2 / b_bias=0 / direct=3 / weightb=1 / open_gop=0 / weightp=2 / keyint=240 / keyint_min=23 / scenecut=40 / intra_refresh=0 / rc_lookahead=60 / rc=crf / mbtree=0 / crf=18.0 / qcomp=0.60 / qpmin=0 / qpmax=69 / qpstep=4 / vbv_maxrate=50000 / vbv_bufsize=62500 / crf_max=0.0 / nal_hrd=none / filler=0 / ip_ratio=1.40 / pb_ratio=1.30 / aq=3:0.80
Language: English
Default: Yes
Forced: No
Color range: Limited
Color primaries: BT.709
Transfer characteristics: BT.709
Matrix coefficients: BT.709

Audio #1
ID: 2
Format: AC-3
Format/Info: Audio Coding 3
Commercial name: Dolby Digital
Codec ID: A_AC3
Duration: 1 h 47 min
Bit rate mode: Constant
Bit rate: 448 kb/s
Channel (s): 6 channels
Channel layout: L R C LFE Ls Rs
Sampling rate: 48.0 kHz
Frame rate: 31.250 FPS (1536 SPF)
Compression mode: Lossy
Stream size: 343 MiB (9%)
Title: Дублированный | Мосфильм-Мастер
Language: Russian
Service kind: Complete Main
Default: Yes
Forced: No
Dialog Normalization: -27 dB
compr: -0.28 dB
cmixlev: -3.0 dB
surmixlev: -3 dB
dmixmod: Lo/Ro
ltrtcmixlev: -3.0 dB
ltrtsurmixlev: -3.0 dB
lorocmixlev: -3.0 dB
lorosurmixlev: -3.0 dB
dialnorm_Average: -27 dB
dialnorm_Minimum: -27 dB
dialnorm_Maximum: -27 dB

Audio #2
ID: 3
Format: E-AC-3
Format/Info: Enhanced AC-3
Commercial name: Dolby Digital Plus
Codec ID: A_EAC3
Duration: 1 h 47 min
Bit rate mode: Constant
Bit rate: 448 kb/s
Channel (s): 6 channels
Channel layout: L R C LFE Ls Rs
Sampling rate: 48.0 kHz
Frame rate: 31.250 FPS (1536 SPF)
Compression mode: Lossy
Stream size: 343 MiB (9%)
Title: Дублированный | Мосфильм-Мастер
Language: Russian
Service kind: Complete Main
Default: No
Forced: No
Dialog Normalization: -31 dB
dialnorm_Average: -31 dB
dialnorm_Minimum: -31 dB
dialnorm_Maximum: -31 dB

Audio #3
ID: 4
Format: AC-3
Format/Info: Audio Coding 3
Commercial name: Dolby Digital
Codec ID: A_AC3
Duration: 1 h 47 min
Bit rate mode: Constant
Bit rate: 640 kb/s
Channel (s): 6 channels
Channel layout: L R C LFE Ls Rs
Sampling rate: 48.0 kHz
Frame rate: 31.250 FPS (1536 SPF)
Compression mode: Lossy
Stream size: 490 MiB (13%)
Title: Original
Language: English
Service kind: Complete Main
Default: No
Forced: No
Dialog Normalization: -31 dB
cmixlev: -4.5 dB
surmixlev: -6 dB
dialnorm_Average: -31 dB
dialnorm_Minimum: -31 dB
dialnorm_Maximum: -31 dB

Text #1
ID: 5
Format: UTF-8
Codec ID: S_TEXT/UTF8
Codec ID/Info: UTF-8 Plain Text
Duration: 1 h 40 min
Bit rate: 12 b/s
Frame rate: 0.022 FPS
Count of elements: 131
Stream size: 9.14 KiB (0%)
Title: Forced
Language: Russian
Default: No
Forced: No

Text #2
ID: 6
Format: UTF-8
Codec ID: S_TEXT/UTF8
Codec ID/Info: UTF-8 Plain Text
Duration: 1 h 40 min
Bit rate: 104 b/s
Frame rate: 0.333 FPS
Count of elements: 2007
Stream size: 77.2 KiB (0%)
Title: Full [Enigma]
Language: Russian
Default: No
Forced: No

Text #3
ID: 7
Format: UTF-8
Codec ID: S_TEXT/UTF8
Codec ID/Info: UTF-8 Plain Text
Duration: 1 h 36 min
Bit rate: 73 b/s
Frame rate: 0.271 FPS
Count of elements: 1569
Stream size: 51.6 KiB (0%)
Title: Full
Language: English (US)
Default: No
Forced: No

Text #4
ID: 8
Format: UTF-8
Codec ID: S_TEXT/UTF8
Codec ID/Info: UTF-8 Plain Text
Duration: 1 h 45 min
Bit rate: 77 b/s
Frame rate: 0.286 FPS
Count of elements: 1813
Stream size: 59.7 KiB (0%)
Title: SDH
Language: English (US)
Default: No
Forced: No

Menu
00:00:00.000: en: Chapter 01
00:03:26.206: en: Chapter 02
00:09:29.443: en: Chapter 03
00:19:48.187: en: Chapter 04
00:26:08.483: en: Chapter 05
00:32:27.946: en: Chapter 06
00:37:28.955: en: Chapter 07
00:45:23.721: en: Chapter 08
00:56:49.614: en: Chapter 09
01:03:10.995: en: Chapter 10
01:13:16.392: en: Chapter 11
01:19:46.782: en: Chapter 12
01:24:10.920: en: Chapter 13
01:29:51.386: en: Chapter 14
01:37:04.068: en: Chapter 15
01:40:08.711: en: Chapter 16

Другие фильмы
Комментарии:

...
jokker 24 апреля 2024 07:22
0

Что со звуком? Как будто перевод на экранку наложили

Информация
Посетители, находящиеся в группе Гости, не могут оставлять комментарии к данной публикации.
Самый популярный релиз недели
Донаты
Мы в соц. сетях / RSS

Лучшие релизы месяца
Лучшие SD недели
Лучшие 720p недели
Лучшие 1080p недели
Лучшие 4K недели
Вы недавно смотрели
Реклама
Последние комментарии
...

Bonzo

14 июня 2024 14:52

...

rmzshka

13 июня 2024 17:48

...

rmzshka

13 июня 2024 12:24

...

LisNick

13 июня 2024 08:45

...

SkySpirit

8 июня 2024 19:54

Реклама