+7

Отец Стю / Father Stu (2022) BDRip 720p от селезень | P

Информация о фильме
Название: Отец Стю
Оригинальное название: Father Stu
Год выхода: 2022
Жанр: Драма, биография
Режиссер: Розалинд Росс
В ролях: Мэл Гибсон, Марк Уолберг, Джеки Уивер, Аннет Махендру, Тереса Руис, Фэйт Джеффрис, Винтер Эйв Золи, Коди Ферн, Нед Беллами, Нико Никотера

О фильме:
История жизни отца Стюарта Лонга, боксера и байкера, ставшего священником, который вдохновил бесчисленное множество людей на своем пути от саморазрушения к искуплению. Он проходит путём саморазрушения, чтобы найти себя. Съёмки фильма проходили в мае 2021 года в Лос-Анджелесе и заняли всего 30 дней. Для роли Лонга Уолберг набрал 30 фунтов за шесть недель, употребляя до 7,000 калорий в день.

Страна: США
Студия: CJ Entertainment, Palm Drive Productions
Продолжительность: 02:04:39
Перевод: Профессиональный многоголосый | Jaskier - Присутствует ненормативная лексика!
Субтитры: Русские (Full x2), Английские (Full, SDH)

Файл
Формат: Matroska
Качество: BDRip 720p
Видео: 1280x536 at 23.976 fps, [email protected], ~2483 kbps
Аудио 1: AC3, 6 ch, ~384 kbps - | Русский | Отец Стю / Father Stu (2022) BDRip 720p от селезень | P
Аудио 2: AC3, 6 ch, ~640 kbps - | Английский |
Формат субтитров: softsub (SRT)

Отец Стю / Father Stu (2022) BDRip 720p от селезень | P

Авторизуйтесь для получения доступа к скачиванию

Нет аккаунта? Регистрация открыта и займёт меньше минуты

Вход Регистрация

General
Unique ID: 287529486436516951004842445969710615716 (0xD8502A2F2B2F8DD45AA7F10524FF8CA4)
Complete name: T: Father.Stu.2022.MVO.BDRip.720p.seleZen.mkv
Format: Matroska
Format version: Version 4
File size: 3.06 GiB
Duration: 2 h 4 min
Overall bit rate: 3 509 kb/s
Frame rate: 23.976 FPS
Movie name: Father.Stu.2022.MVO.BDRip.720p.seleZen
Encoded date: 09.04.2024 07:32:26 UTC
Writing application: mkvmerge v83.0 ('Circle Of Friends') 64-bit
Writing library: libebml v1.4.5 + libmatroska v1.7.1
Cover: Yes
Attachments: cover.jpg / small_cover.jpg

Video
ID: 1
Format: AVC
Format/Info: Advanced Video Codec
Format profile: [email protected]
Format settings: CABAC / 12 Ref Frames
Format settings, CABAC: Yes
Format settings, Reference: 12 frames
Codec ID: V_MPEG4/ISO/AVC
Duration: 2 h 4 min
Bit rate: 2 483 kb/s
Width: 1 280 pixels
Height: 536 pixels
Display aspect ratio: 2.40:1
Frame rate mode: Constant
Frame rate: 23.976 (24000/1001) FPS
Color space: YUV
Chroma subsampling: 4:2:0
Bit depth: 8 bits
Scan type: Progressive
Bits/(Pixel*Frame): 0.151
Stream size: 2.16 GiB (71%)
Title: MTeam
Writing library: x264 core 157 r2938 2b00a84 TnP@MTeam Mod
Encoding settings: cabac=1 / ref=12 / deblock=1:-3:-3 / analyse=0×3:0×133 / me=umh / subme=10 / psy=1 / psy_rd=1.05:0.00 / mixed_ref=1 / me_range=32 / chroma_me=1 / trellis=2 / 8×8dct=1 / cqm=0 / deadzone=21,11 / fast_pskip=0 / chroma_qp_offset=-2 / threads=12 / lookahead_threads=2 / sliced_threads=0 / nr=0 / decimate=0 / interlaced=0 / bluray_compat=0 / constrained_intra=0 / bframes=8 / b_pyramid=2 / b_adapt=2 / b_bias=0 / direct=3 / weightb=1 / open_gop=0 / weightp=2 / keyint=250 / keyint_min=24 / scenecut=40 / intra_refresh=0 / rc_lookahead=250 / rc=crf / mbtree=0 / crf=16.8 / qcomp=0.60 / qpmin=0 / qpmax=69 / qpstep=4 / vbv_maxrate=62500 / vbv_bufsize=78125 / crf_max=0.0 / nal_hrd=none / filler=0 / ip_ratio=1.30 / pb_ratio=1.20 / aq=3:0.80
Language: English
Default: Yes
Forced: No
Color range: Limited
Color primaries: BT.709
Matrix coefficients: BT.709

Audio #1
ID: 2
Format: AC-3
Format/Info: Audio Coding 3
Commercial name: Dolby Digital
Codec ID: A_AC3
Duration: 2 h 4 min
Bit rate mode: Constant
Bit rate: 384 kb/s
Channel (s): 6 channels
Channel layout: L R C LFE Ls Rs
Sampling rate: 48.0 kHz
Frame rate: 31.250 FPS (1536 SPF)
Compression mode: Lossy
Stream size: 342 MiB (11%)
Title: MVO_[Jaskier] 18+
Language: Russian
Service kind: Complete Main
Default: Yes
Forced: No

Audio #2
ID: 3
Format: AC-3
Format/Info: Audio Coding 3
Commercial name: Dolby Digital
Codec ID: A_AC3
Duration: 2 h 4 min
Bit rate mode: Constant
Bit rate: 640 kb/s
Channel (s): 6 channels
Channel layout: L R C LFE Ls Rs
Sampling rate: 48.0 kHz
Frame rate: 31.250 FPS (1536 SPF)
Compression mode: Lossy
Stream size: 571 MiB (18%)
Title: Original
Language: English
Service kind: Complete Main
Default: No
Forced: No

Text #1
ID: 4
Format: UTF-8
Codec ID: S_TEXT/UTF8
Codec ID/Info: UTF-8 Plain Text
Duration: 2 h 3 min
Bit rate: 99 b/s
Frame rate: 0.215 FPS
Count of elements: 1585
Stream size: 89.8 KiB (0%)
Title: Full
Language: Russian
Default: No
Forced: No

Text #2
ID: 5
Format: UTF-8
Codec ID: S_TEXT/UTF8
Codec ID/Info: UTF-8 Plain Text
Duration: 2 h 0 min
Bit rate: 101 b/s
Frame rate: 0.241 FPS
Count of elements: 1751
Stream size: 90.0 KiB (0%)
Title: Full -Jaskier 18+
Language: Russian
Default: No
Forced: No

Text #3
ID: 6
Format: UTF-8
Codec ID: S_TEXT/UTF8
Codec ID/Info: UTF-8 Plain Text
Duration: 2 h 0 min
Bit rate: 60 b/s
Frame rate: 0.214 FPS
Count of elements: 1556
Stream size: 53.6 KiB (0%)
Title: Full
Language: English
Default: No
Forced: No

Text #4
ID: 7
Format: UTF-8
Codec ID: S_TEXT/UTF8
Codec ID/Info: UTF-8 Plain Text
Duration: 2 h 2 min
Bit rate: 74 b/s
Frame rate: 0.281 FPS
Count of elements: 2062
Stream size: 66.8 KiB (0%)
Title: SDH
Language: English
Default: No
Forced: No

Menu
00:00:00.000: en: Chapter 01
00:09:14.637: en: Chapter 02
00:17:31.676: en: Chapter 03
00:20:25.558: en: Chapter 04
00:26:13.030: en: Chapter 05
00:34:10.840: en: Chapter 06
00:49:55.492: en: Chapter 07
01:01:30.812: en: Chapter 08
01:06:45.752: en: Chapter 09
01:11:32.246: en: Chapter 10
01:15:28.649: en: Chapter 11
01:19:47.950: en: Chapter 12
01:24:26.436: en: Chapter 13
01:31:17.263: en: Chapter 14
01:39:43.019: en: Chapter 15
01:50:27.871: en: Chapter 16

Другие фильмы
У данной публикации пока нет комментариев.
Будь первым, оставь своё мнение в комментариях!
Информация
Посетители, находящиеся в группе Гости, не могут оставлять комментарии к данной публикации.
Самый популярный релиз недели
Донаты
Мы в соц. сетях / RSS

Лучшие релизы месяца
Лучшие SD недели
Лучшие 720p недели
Лучшие 1080p недели
Лучшие 4K недели
Вы недавно смотрели
Реклама
Последние комментарии
...

rmzshka

15 мая 2024 13:43

...

Andrey_Vladimirovich

13 мая 2024 18:12

...

Robot

13 мая 2024 16:53

...

rmzshka

13 мая 2024 16:21

...

supermehanik

13 мая 2024 02:03

Реклама