+19

Пэриш / Parish [01x01-06 из 06] (2024) WEB-DLRip-AVC от DoMiNo & селезень | Novamedia, HDRezka Studio

Информация о сериале
Название: Пэриш
Оригинальное название: Parish
Год выхода: 2024
Жанр: Драма, триллер, криминал
Режиссер: Суну Гонера
В ролях: Джанкарло Эспозито, Закари Момо, Иван Мбакоп, Дэкс Рей, Калеб Бауманн, Т. Джоэль Смит

О сериале:
Грей Пэриш когда-то был членом преступной банды, но покинул ее ради семьи и стал владельцем элитного автопарка в Новом Орлеане. Однако, когда его сына жестоко убивают, Грей берется за старое. Он соглашается помочь опасному гангстеру, на которого он когда-то работал водителем, в деле, связанном с нелегальными мигрантами. И с этого момента его размеренная жизнь стремительно летит в пропасть.

Страна: США
Студия: A+E Studios, AMC Studios, Thruline Entertainment
Продолжительность: ~00:55:00 серия
Перевод 1: Профессиональный (многоголосый закадровый) | Novamedia
Перевод 2: Профессиональный (многоголосый закадровый) | HDRezka Studio
Субтитры: Русские (Forced, Full), Английские

Файл
Формат: Matroska
Качество: WEB-DLRip-AVC
Видео: 1024x514, 1024x512 at 23.976 fps, [email protected], ~2000-1800 kbps
Аудио 1: AC3, 6 ch, ~384 kbps - | Русский | Пэриш / Parish [01x01-06 из 06] (2024) WEB-DLRip-AVC от DoMiNo & селезень | Novamedia, HDRezka Studio | Novamedia
Аудио 2: AC3, 2 ch, ~192 kbps - | Русский | | HDRezka Studio
Формат субтитров: softsub (SRT)

Авторизуйтесь для получения доступа к скачиванию

Нет аккаунта? Регистрация открыта и займёт меньше минуты

Вход Регистрация

General
Unique ID : 78685238383554714793334474216554503713 (0x3B3239C60F7DCB4D4BD07CAE91461E21)
Complete name : E:Parish.S01.2024.WEB-DLRip.x264.seleZenParish.S01E01.WEB-DLRip.x264.seleZen.mkv
Format : Matroska
Format version : Version 4
File size : 945 MiB
Duration : 51 min 14 s
Overall bit rate : 2 578 kb/s
Frame rate : 23.976 FPS
Movie name : Parish.S01E01.WEB-DLRip.x264.seleZen
Encoded date : 2024-04-01 12:50:00 UTC
Writing application : mkvmerge v83.0 ('Circle Of Friends') 64-bit
Writing library : libebml v1.4.5 + libmatroska v1.7.1
Cover : Yes
Attachments : cover.jpeg / small_cover.jpg

Video
ID : 1
Format : AVC
Format/Info : Advanced Video Codec
Format profile : [email protected]
Format settings : CABAC / 10 Ref Frames
Format settings, CABAC : Yes
Format settings, Reference : 10 frames
Codec ID : V_MPEG4/ISO/AVC
Duration : 51 min 14 s
Bit rate : 2 000 kb/s
Width : 1 024 pixels
Height : 514 pixels
Display aspect ratio : 1.992
Frame rate mode : Constant
Frame rate : 23.976 (24000/1001) FPS
Color space : YUV
Chroma subsampling : 4:2:0
Bit depth : 8 bits
Scan type : Progressive
Bits/(Pixel*Frame) : 0.158
Stream size : 733 MiB (78%)
Title : -=DoMiNo=-
Writing library : x264 core 164 r3190 -DoMiNo
Encoding settings : cabac=1 / ref=10 / deblock=1:-2:-1 / analyse=0x3:0x133 / me=umh / subme=10 / psy=1 / psy_rd=1.00:0.15 / mixed_ref=1 / me_range=32 / chroma_me=1 / trellis=2 / 8x8dct=1 / cqm=0 / deadzone=21,11 / fast_pskip=0 / chroma_qp_offset=-3 / threads=16 / lookahead_threads=4 / sliced_threads=0 / nr=0 / decimate=0 / interlaced=0 / bluray_compat=0 / constrained_intra=0 / bframes=10 / b_pyramid=2 / b_adapt=2 / b_bias=0 / direct=3 / weightb=1 / open_gop=0 / weightp=2 / keyint=240 / keyint_min=23 / scenecut=40 / intra_refresh=0 / rc_lookahead=60 / rc=2pass / mbtree=0 / bitrate=2000 / ratetol=1.0 / qcomp=0.60 / qpmin=0 / qpmax=69 / qpstep=4 / cplxblur=20.0 / qblur=0.5 / vbv_maxrate=50000 / vbv_bufsize=62500 / nal_hrd=none / filler=0 / ip_ratio=1.20 / pb_ratio=1.30 / aq=3:0.90
Language : English
Default : Yes
Forced : No
Color range : Limited
Color primaries : BT.709
Transfer characteristics : BT.709
Matrix coefficients : BT.709

Audio #1
ID : 2
Format : AC-3
Format/Info : Audio Coding 3
Commercial name : Dolby Digital
Codec ID : A_AC3
Duration : 51 min 14 s
Bit rate mode : Constant
Bit rate : 384 kb/s
Channel(s) : 6 channels
Channel layout : L R C LFE Ls Rs
Sampling rate : 48.0 kHz
Frame rate : 31.250 FPS (1536 SPF)
Compression mode : Lossy
Stream size : 141 MiB (15%)
Title : MVO [Novamedia]
Language : Russian
Service kind : Complete Main
Default : Yes
Forced : No

Audio #2
ID : 3
Format : AC-3
Format/Info : Audio Coding 3
Commercial name : Dolby Digital
Codec ID : A_AC3
Duration : 51 min 14 s
Bit rate mode : Constant
Bit rate : 192 kb/s
Channel(s) : 2 channels
Channel layout : L R
Sampling rate : 48.0 kHz
Frame rate : 31.250 FPS (1536 SPF)
Compression mode : Lossy
Stream size : 70.4 MiB (7%)
Title : MVO [HDRezka Studio]
Service kind : Complete Main
Default : No
Forced : No

Text #1
ID : 4
Format : UTF-8
Codec ID : S_TEXT/UTF8
Codec ID/Info : UTF-8 Plain Text
Duration : 46 min 26 s
Bit rate : 3 b/s
Frame rate : 0.009 FPS
Count of elements : 26
Stream size : 1.22 KiB (0%)
Title : Forced
Language : Russian
Default : No
Forced : No

Text #2
ID : 5
Format : UTF-8
Codec ID : S_TEXT/UTF8
Codec ID/Info : UTF-8 Plain Text
Duration : 49 min 32 s
Bit rate : 64 b/s
Frame rate : 0.185 FPS
Count of elements : 549
Stream size : 23.4 KiB (0%)
Title : Russian
Language : Russian
Default : No
Forced : No

Text #3
ID : 6
Format : UTF-8
Codec ID : S_TEXT/UTF8
Codec ID/Info : UTF-8 Plain Text
Duration : 51 min 7 s
Bit rate : 63 b/s
Frame rate : 0.299 FPS
Count of elements : 917
Stream size : 23.9 KiB (0%)
Title : English (SDH)
Language : English
Default : No
Forced : No

Другие фильмы
У данной публикации пока нет комментариев.
Будь первым, оставь своё мнение в комментариях!
Информация
Посетители, находящиеся в группе Гости, не могут оставлять комментарии к данной публикации.
Самый популярный релиз недели
Донаты
Мы в соц. сетях / RSS

Лучшие релизы месяца
Лучшие SD недели
Лучшие 720p недели
Лучшие 1080p недели
Лучшие 4K недели
Вы недавно смотрели
Реклама
Последние комментарии
...

rmzshka

15 мая 2024 13:43

...

Andrey_Vladimirovich

13 мая 2024 18:12

...

Robot

13 мая 2024 16:53

...

rmzshka

13 мая 2024 16:21

...

supermehanik

13 мая 2024 02:03

Реклама