+18

Наследник / Gwigongja / The Childe (2023) BDRip 720p от DoMiNo & селезень | P, A

Информация о фильме
Название: Наследник
Оригинальное название: Gwigongja / The Childe
Год выпуска: 2023
Жанр: Боевик, триллер, драма, криминал
Режиссер: Пак Джон-хун / Jeong-Hun Park
В ролях: Ким Сон-хо, Кан Тхэ-джу, Ким Ган-у, Ко А-ра, Квон Хёк-хён, Джастин Джон Харви

О фильме:
Молодой боксёр Марко Хан — так называемый копино, корейско-филиппинских кровей — всю жизнь прожил на Филиппинах и никогда не видел отца-корейца. Его мать тяжело больна, поэтому, пытаясь накопить на лечение, парень хватается за любые возможности заработка и разыскивает корейских родственников. Однажды на него выходят адвокаты, утверждающие, что его богатый папа наконец-то нашёл потерянную кровиночку и жаждет встречи. Марко летит в Корею, но уже в самолёте парня начинает запугивать странный тип, называющий себя его другом.

Выпущено: Южная Корея, Next Entertainment World, Goldmoon Film
Продолжительность: 01:58:19
Перевод 1: Профессиональный (многоголосый, закадровый) | TVShows
Перевод 2: Авторский (одноголосый, закадровый) | Ю. Сербин | 18 +
Субтитры: Английские

Файл
Формат: Matroska
Качество: BDRip 720p [Исх.Gwigongja.2023.MULTi.COMPLETE.BLURAY-SharpHD]
Видео: 1280×534 at 23.976 fps, [email protected], ~5737 kbps
Аудио 1: AC3, 2 ch, ~192 kbps — | Русский | Наследник / Gwigongja / The Childe (2023) BDRip 720p от DoMiNo & селезень | P, A | TVShows
Аудио 2: AC3, 2 ch, ~192 kbps — | Русский | | Ю. Сербин
Аудио 3: AC3, 6 ch, ~640 kbps — | Корейский | Original
Формат субтитров: softsub (SRT)

Авторизуйтесь для получения доступа к скачиванию

Нет аккаунта? Регистрация открыта и займёт меньше минуты

Вход Регистрация

x264 [info]: frame I:1476 Avg QP:15.94 size:118294
x264 [info]: frame P:32348 Avg QP:16.88 size: 56848
x264 [info]: frame B:136393 Avg QP:19.14 size: 22566

General
Unique ID : 89290463886776098953085959808792420855 (0x432CB7C2B58F732AB634C82FB08C61F7)
Complete name : S:Gwigongja.2023.BDRip.720p.x264.seleZen.mkv
Format : Matroska
Format version : Version 4
File size : 5.59 GiB
Duration : 1 h 58 min
Overall bit rate : 6 764 kb/s
Frame rate : 23.976 FPS
Movie name : Gwigongja.2023.BDRip.720p.x264.seleZen
Encoded date : 2023-12-06 19:23:48 UTC
Writing application : mkvmerge v81.0 ('Milliontown') 64-bit
Writing library : libebml v1.4.4 + libmatroska v1.7.1
Cover : Yes
Attachments : cover.jpg / small_cover.jpg

Video
ID : 1
Format : AVC
Format/Info : Advanced Video Codec
Format profile : [email protected]
Format settings : CABAC / 12 Ref Frames
Format settings, CABAC : Yes
Format settings, Reference : 12 frames
Codec ID : V_MPEG4/ISO/AVC
Duration : 1 h 58 min
Bit rate : 5 737 kb/s
Width : 1 280 pixels
Height : 534 pixels
Display aspect ratio : 2.40:1
Frame rate mode : Constant
Frame rate : 23.976 (24000/1001) FPS
Color space : YUV
Chroma subsampling : 4:2:0
Bit depth : 8 bits
Scan type : Progressive
Bits/(Pixel*Frame) : 0.350
Stream size : 4.74 GiB (85%)
Title : -=DoMiNo=-
Writing library : x264 core 164 r3172 -DoMiNo
Encoding settings : cabac=1 / ref=12 / deblock=1:-2:-2 / analyse=0x3:0x133 / me=umh / subme=10 / psy=1 / psy_rd=1.01:0.02 / mixed_ref=1 / me_range=32 / chroma_me=1 / trellis=2 / 8x8dct=1 / cqm=0 / deadzone=21,11 / fast_pskip=0 / chroma_qp_offset=-3 / threads=17 / lookahead_threads=4 / sliced_threads=0 / nr=0 / decimate=1 / interlaced=0 / bluray_compat=0 / constrained_intra=0 / bframes=12 / b_pyramid=2 / b_adapt=2 / b_bias=0 / direct=3 / weightb=1 / open_gop=0 / weightp=2 / keyint=250 / keyint_min=23 / scenecut=40 / intra_refresh=0 / rc_lookahead=60 / rc=crf / mbtree=0 / crf=18.0 / qcomp=0.60 / qpmin=0 / qpmax=69 / qpstep=4 / vbv_maxrate=50000 / vbv_bufsize=62500 / crf_max=0.0 / nal_hrd=none / filler=0 / ip_ratio=1.40 / pb_ratio=1.30 / aq=3:0.80
Language : Korean
Default : Yes
Forced : No

Audio #1
ID : 2
Format : AC-3
Format/Info : Audio Coding 3
Commercial name : Dolby Digital
Codec ID : A_AC3
Duration : 1 h 58 min
Bit rate mode : Constant
Bit rate : 192 kb/s
Channel(s) : 2 channels
Channel layout : L R
Sampling rate : 48.0 kHz
Frame rate : 31.250 FPS (1536 SPF)
Compression mode : Lossy
Stream size : 162 MiB (3%)
Title : TVShows
Language : Russian
Service kind : Complete Main
Default : Yes
Forced : Yes

Audio #2
ID : 3
Format : AC-3
Format/Info : Audio Coding 3
Commercial name : Dolby Digital
Codec ID : A_AC3
Duration : 1 h 58 min
Bit rate mode : Constant
Bit rate : 192 kb/s
Channel(s) : 2 channels
Channel layout : L R
Sampling rate : 48.0 kHz
Frame rate : 31.250 FPS (1536 SPF)
Compression mode : Lossy
Stream size : 162 MiB (3%)
Title : Ю. Сербин 18 +
Language : Russian
Service kind : Complete Main
Default : No
Forced : No

Audio #3
ID : 4
Format : AC-3
Format/Info : Audio Coding 3
Commercial name : Dolby Digital
Codec ID : A_AC3
Duration : 1 h 58 min
Bit rate mode : Constant
Bit rate : 640 kb/s
Channel(s) : 6 channels
Channel layout : L R C LFE Ls Rs
Sampling rate : 48.0 kHz
Frame rate : 31.250 FPS (1536 SPF)
Compression mode : Lossy
Stream size : 542 MiB (9%)
Title : Original
Language : Korean
Service kind : Complete Main
Default : No
Forced : No

Text
ID : 5
Format : UTF-8
Codec ID : S_TEXT/UTF8
Codec ID/Info : UTF-8 Plain Text
Duration : 1 h 54 min
Bit rate : 34 b/s
Frame rate : 0.152 FPS
Count of elements : 1044
Stream size : 28.9 KiB (0%)
Language : English
Default : No
Forced : No

Menu
00:00:00.000 : Глава 1
00:10:30.379 : Глава 2
00:21:44.970 : Глава 3
00:30:14.312 : Глава 4
00:44:57.820 : Глава 5
00:56:43.608 : Глава 6
01:04:49.093 : Глава 7
01:17:07.247 : Глава 8
01:24:46.790 : Глава 9
01:34:57.191 : Глава 10
01:46:24.419 : Глава 11
01:53:32.263 : Глава 12
01:58:18.966 : Глава 13

Другие фильмы
У данной публикации пока нет комментариев.
Будь первым, оставь своё мнение в комментариях!
Информация
Посетители, находящиеся в группе Гости, не могут оставлять комментарии к данной публикации.
Самый популярный релиз недели
Донаты
Мы в соц. сетях / RSS

Лучшие релизы месяца
Лучшие SD недели
Лучшие 720p недели
Лучшие 1080p недели
Лучшие 4K недели
Вы недавно смотрели
Реклама
Последние комментарии
...

korelov

23 февраля 2024 14:35

...

Desol

21 февраля 2024 00:28

...

diabloq

20 февраля 2024 14:17

...

slightlymad

17 февраля 2024 21:01

...

takezi

15 февраля 2024 22:10

Реклама