+7

Планета обезьян: Новое царство / Kingdom of the Planet of the Apes (2024) WEB-DLRip 1080p от селезень | D, P, A

Информация о фильме
Название: Планета обезьян: Новое царство
Оригинальное название: Kingdom of the Planet of the Apes
Год выхода: 2024
Жанр: Фантастика, боевик, приключения
Режиссер: Уэс Болл
В ролях: Оуэн Тиг, Питер Макон, Фрейя Аллан, Кевин Дюран, Трэвис Джеффри, Уильям Х. Мэйси, Дичен Лакмэн, Ика Дэрвилл, Лидия Пекхэм, Нил Сэндилэндс

О фильме:
Несколько поколений после правления Цезаря. Обезьяны являются доминирующим видом, живущим в гармонии, а люди вынуждены оставаться в тени. Пока новый тиранический лидер обезьян строит свою империю, один молодой шимпанзе отправляется в путешествие, которое заставит его усомниться во всём, что он знал о прошлом, и сделать выбор, который определит будущее как обезьян, так и людей.

Страна: США, Австралия
Студия: 20th Century Fox Film Corporation, Fox Studios Australia, Jason T. Reed Productions, Oddball Entertainment
Продолжительность: 02:24:40
Перевод #1: Профессиональный (дублированный) | MovieDalen
Перевод #2: Профессиональный (многоголосый закадровый) | Jaskier
Перевод #3: Авторский (одноголосый закадровый) | Д.Есарев
Субтитры: Русские (Forced, Full), английские

Файл
Формат: Matroska
Качество: WEB-DLRip 1080p
Исходник: Kingdom.of.the.Planet.of.the.Apes.2024.2160p.WEB-DL.DDP5.1.Atmos.H.265-XEBEC
Видео: 1920x802 at 24.000 fps, [email protected], ~5192 kbps
Аудио 1: AC3, 6 ch, ~448 kbps - | Русский | Планета обезьян: Новое царство / Kingdom of the Planet of the Apes (2024) WEB-DLRip 1080p от селезень | D, P, A | MovieDalen
Аудио 2: AC3, 6 ch, ~384 kbps - | Русский | | Jaskier
Аудио 3: AC3, 6 ch, ~640 kbps - | Русский | | Д.Есарев
Аудио 4: AC3, 6 ch, ~448 kbps - | Английский |
Формат субтитров: softsub (SRT)
► Без Рекламы!

Авторизуйтесь для получения доступа к скачиванию

Нет аккаунта? Регистрация открыта и займёт меньше минуты

Вход Регистрация

General
Unique ID : 324578981782248060684660930966921732173 (0xF42FA35626BDF60FE66FCB55C51CE04D)
Complete name : K:Kingdom.of.the.Planet.of.the.Apes.2024.D.P.A.WEB-DLRip.1080p.x264.seleZen.mkv
Format : Matroska
Format version : Version 4
File size : 7.19 GiB
Duration : 2 h 24 min
Overall bit rate : 7 115 kb/s
Frame rate : 24.000 FPS
Movie name : Kingdom.of.the.Planet.of.the.Apes.2024.D.P.A.WEB-DLRip.1080p.x264.seleZen
Encoded date : 2024-07-11 13:57:30 UTC
Writing application : mkvmerge v85.0 ('Shame For You') 64-bit
Writing library : libebml v1.4.5 + libmatroska v1.7.1
Cover : Yes
Attachments : cover.jpg / small_cover.jpg

Video
ID : 1
Format : AVC
Format/Info : Advanced Video Codec
Format profile : [email protected]
Format settings : CABAC / 5 Ref Frames
Format settings, CABAC : Yes
Format settings, Reference : 5 frames
Codec ID : V_MPEG4/ISO/AVC
Duration : 2 h 24 min
Bit rate : 5 192 kb/s
Width : 1 920 pixels
Height : 802 pixels
Display aspect ratio : 2.39:1
Frame rate mode : Constant
Frame rate : 24.000 FPS
Color space : YUV
Chroma subsampling : 4:2:0
Bit depth : 8 bits
Scan type : Progressive
Bits/(Pixel*Frame) : 0.140
Stream size : 5.25 GiB (73%)
Title : seleZen
Writing library : x264 core 164 r3164 seleZen
Encoding settings : cabac=1 / ref=5 / deblock=1:-2:-2 / analyse=0x3:0x133 / me=umh / subme=10 / psy=1 / psy_rd=1.03:0.01 / mixed_ref=1 / me_range=32 / chroma_me=1 / trellis=2 / 8x8dct=1 / cqm=0 / deadzone=21,11 / fast_pskip=0 / chroma_qp_offset=-3 / threads=25 / lookahead_threads=4 / sliced_threads=0 / nr=0 / decimate=0 / interlaced=0 / bluray_compat=0 / constrained_intra=0 / bframes=8 / b_pyramid=2 / b_adapt=2 / b_bias=0 / direct=1 / weightb=1 / open_gop=0 / weightp=2 / keyint=240 / keyint_min=23 / scenecut=40 / intra_refresh=0 / rc_lookahead=60 / rc=crf / mbtree=0 / crf=18.6 / qcomp=0.60 / qpmin=0 / qpmax=51 / qpstep=4 / vbv_maxrate=50000 / vbv_bufsize=62500 / crf_max=0.0 / nal_hrd=none / filler=0 / ip_ratio=1.40 / pb_ratio=1.30 / aq=3:0.80
Language : English
Default : Yes
Forced : No

Audio #1
ID : 2
Format : AC-3
Format/Info : Audio Coding 3
Commercial name : Dolby Digital
Codec ID : A_AC3
Duration : 2 h 24 min
Bit rate mode : Constant
Bit rate : 448 kb/s
Channel(s) : 6 channels
Channel layout : L R C LFE Ls Rs
Sampling rate : 48.0 kHz
Frame rate : 31.250 FPS (1536 SPF)
Compression mode : Lossy
Stream size : 464 MiB (6%)
Title : DUB - MovieDalen
Language : Russian
Service kind : Complete Main
Default : Yes
Forced : No
Dialog Normalization : -31 dB
compr : -0.28 dB
cmixlev : -3.0 dB
surmixlev : -3 dB
dmixmod : Lo/Ro
ltrtcmixlev : -3.0 dB
ltrtsurmixlev : -3.0 dB
lorocmixlev : -3.0 dB
lorosurmixlev : -3.0 dB
dialnorm_Average : -31 dB
dialnorm_Minimum : -31 dB
dialnorm_Maximum : -31 dB

Audio #2
ID : 3
Format : AC-3
Format/Info : Audio Coding 3
Commercial name : Dolby Digital
Codec ID : A_AC3
Duration : 2 h 24 min
Bit rate mode : Constant
Bit rate : 384 kb/s
Channel(s) : 6 channels
Channel layout : L R C LFE Ls Rs
Sampling rate : 48.0 kHz
Frame rate : 31.250 FPS (1536 SPF)
Compression mode : Lossy
Stream size : 397 MiB (5%)
Title : MVO - Jaskier
Language : Russian
Service kind : Complete Main
Default : No
Forced : No
Dialog Normalization : -31 dB
cmixlev : -4.5 dB
surmixlev : -6 dB
dialnorm_Average : -31 dB
dialnorm_Minimum : -31 dB
dialnorm_Maximum : -31 dB

Audio #3
ID : 4
Format : AC-3
Format/Info : Audio Coding 3
Commercial name : Dolby Digital
Codec ID : A_AC3
Duration : 2 h 24 min
Bit rate mode : Constant
Bit rate : 640 kb/s
Channel(s) : 6 channels
Channel layout : L R C LFE Ls Rs
Sampling rate : 48.0 kHz
Frame rate : 31.250 FPS (1536 SPF)
Compression mode : Lossy
Stream size : 662 MiB (9%)
Title : AVO - Д.Есарев
Language : Russian
Service kind : Complete Main
Default : No
Forced : No
Dialog Normalization : -31 dB
cmixlev : -4.5 dB
surmixlev : -6 dB
dialnorm_Average : -31 dB
dialnorm_Minimum : -31 dB
dialnorm_Maximum : -31 dB

Audio #4
ID : 5
Format : AC-3
Format/Info : Audio Coding 3
Commercial name : Dolby Digital
Codec ID : A_AC3
Duration : 2 h 24 min
Bit rate mode : Constant
Bit rate : 448 kb/s
Channel(s) : 6 channels
Channel layout : L R C LFE Ls Rs
Sampling rate : 48.0 kHz
Frame rate : 31.250 FPS (1536 SPF)
Compression mode : Lossy
Stream size : 464 MiB (6%)
Title : Original
Language : English
Service kind : Complete Main
Default : No
Forced : No
Dialog Normalization : -31 dB
cmixlev : -4.5 dB
surmixlev : -6 dB
dialnorm_Average : -31 dB
dialnorm_Minimum : -31 dB
dialnorm_Maximum : -31 dB

Text #1
ID : 6
Format : UTF-8
Codec ID : S_TEXT/UTF8
Codec ID/Info : UTF-8 Plain Text
Duration : 2 h 13 min
Bit rate : 0 b/s
Frame rate : 0.003 FPS
Count of elements : 20
Stream size : 756 Bytes (0%)
Title : Forced_[rus]
Language : Russian
Default : Yes
Forced : No

Text #2
ID : 7
Format : UTF-8
Codec ID : S_TEXT/UTF8
Codec ID/Info : UTF-8 Plain Text
Duration : 2 h 15 min
Bit rate : 31 b/s
Frame rate : 0.117 FPS
Count of elements : 952
Stream size : 31.0 KiB (0%)
Title : Full
Language : Russian
Default : No
Forced : No

Text #3
ID : 8
Format : UTF-8
Codec ID : S_TEXT/UTF8
Codec ID/Info : UTF-8 Plain Text
Duration : 2 h 9 min
Bit rate : 0 b/s
Frame rate : 0.002 FPS
Count of elements : 12
Stream size : 178 Bytes (0%)
Title : Forced
Language : English
Default : No
Forced : No

Text #4
ID : 9
Format : UTF-8
Codec ID : S_TEXT/UTF8
Codec ID/Info : UTF-8 Plain Text
Duration : 2 h 11 min
Bit rate : 17 b/s
Frame rate : 0.118 FPS
Count of elements : 932
Stream size : 17.0 KiB (0%)
Title : Full
Language : English
Default : No
Forced : No

Text #5
ID : 10
Format : UTF-8
Codec ID : S_TEXT/UTF8
Codec ID/Info : UTF-8 Plain Text
Duration : 2 h 21 min
Bit rate : 25 b/s
Frame rate : 0.162 FPS
Count of elements : 1374
Stream size : 27.0 KiB (0%)
Title : SDH
Language : English
Default : No
Forced : No

Другие фильмы
Комментарии:

...
rmzshka 12 июля 2024 11:30
0

-=DoMiNo=-,

Предпочитаю с яйцами и капустой. У тебя нет ни того, ни другого.

...
-=DoMiNo=- 11 июля 2024 23:42
0

Молодец - возьми с полки пирожок.

...
rmzshka 11 июля 2024 11:28
0

-=DoMiNo=-,

говно друг у друга лепите, не одного нормального релиза не было. Я написал на трех трекерах, включая вас. Если для вас 3 трекера это все, то даже не знаю... Надо же доносить до людей и как-то действовать чтобы исправили этот испанский стыд.

...
-=DoMiNo=- 10 июля 2024 15:08
+1

Я смотрю ты уже на всех трекерах отметился уже.

...
rmzshka 9 июля 2024 23:34
0

Тут тоже плавающий рассинхрон как и везде? Исходник звука у всех один и он дерьмовый, ребята надо держать марку…

Информация
Посетители, находящиеся в группе Гости, не могут оставлять комментарии к данной публикации.
Самый популярный релиз недели
Донаты
Мы в соц. сетях / RSS

Лучшие релизы месяца
Лучшие SD недели
Лучшие 720p недели
Лучшие 1080p недели
Лучшие 4K недели
Вы недавно смотрели
Реклама
Последние комментарии
...

rmzshka

12 июля 2024 11:30

...

Rustik99

12 июля 2024 10:11

...

-=DoMiNo=-

11 июля 2024 23:42

...

rmzshka

11 июля 2024 11:28

...

-=DoMiNo=-

10 июля 2024 15:08

Реклама