+20

Вонка / Wonka (2023) HDRip-AVC от DoMiNo & селезень | D

Информация о фильме
Название: Вонка
Оригинальное название: Wonka
Год выхода: 2023
Жанр: Мюзикл, фэнтези, комедия, приключения, семейный
Режиссер: Пол Кинг
В ролях: Тимоти Шаламе, Gustave Die, Мюррэй МакАртур, Пол Дж. Рэймонд, Берти Каплан, Изи Сатти, Кобна Холдбрук-Смит, Матильда Такер, Том Дэвис, Оливия Колман

О фильме:
Задолго до того, как мальчик Чарли вытянул свой счастливый билет и познакомился с удивительным владельцем не менее удивительной шоколадной фабрики, Вилли Вонка был молодым фантазером, великим изобретателем, волшебником и непревзойденным изготовителем шоколада, доступного всем и каждому. Однажды он знакомится с представителем племени пигмеев умпа-лумпа и узнает о существовании страны Лумпаландии, полной опасных хищников и самых экзотических вкусов. Следуя за своей мечтой, Вонка приступает к строительству грандиозной фабрики шоколада, равной которой не будет во всем мире.«Вонка» (2023) — фэнтезийный мюзикл с Тимоти Шаламе в роли эксцентричного шоколатье Вилли Вонки из знаменитой повести Роальда Даля «Чарли и шоколадная фабрика».

Страна: США, Великобритания, Канада | Warner Bros.
Продолжительность: 01:56:16
Перевод: Дублированный | Официальный | Bravo Records Georgia
Субтитры: Русские (Forced, Full), Английские

Файл
Формат: Matroska
Качество: HDRip-AVC
Видео: 1024x426 at 23.976 fps, [email protected], ~1768 kbps
Аудио: AC3, 6 ch, ~384 kbps - | Русский | Вонка / Wonka (2023) HDRip-AVC от DoMiNo & селезень | D
Аудио 2: AC3, 6 ch, ~448 kbps - | Английский |
Формат субтитров: softsub (SRT)

Авторизуйтесь для получения доступа к скачиванию

Нет аккаунта? Регистрация открыта и займёт меньше минуты

Вход Регистрация

x264 [info]: frame I: 1814 Avg QP: 13.38 size: 61582
x264 [info]: frame P: 34297 Avg QP: 15.70 size: 21124
x264 [info]: frame B: 131156 Avg QP: 17.38 size: 4840

General
Unique ID: 285053397706086789555925222584827174860 (0xD67349959CAAAF389C9F195021B6DFCC)
Complete name: R: Wonka.2023.DUB.x264.seleZen.mkv
Format: Matroska
Format version: Version 4
File size: 2.05 GiB
Duration: 1 h 56 min
Overall bit rate: 2 513 kb/s
Frame rate: 23.976 FPS
Movie name: Wonka.2023.DUB.x264.seleZen
Encoded date: 21.02.2024 20:19:47 UTC
Writing application: mkvmerge v82.0 ('I’m The President') 64-bit
Writing library: libebml v1.4.5 + libmatroska v1.7.1
Cover: Yes
Attachments: cover.jpg / small_cover.jpg

Video
ID: 1
Format: AVC
Format/Info: Advanced Video Codec
Format profile: [email protected]
Format settings: CABAC / 14 Ref Frames
Format settings, CABAC: Yes
Format settings, Reference: 14 frames
Codec ID: V_MPEG4/ISO/AVC
Duration: 1 h 56 min
Bit rate: 1 687 kb/s
Width: 1 024 pixels
Height: 426 pixels
Display aspect ratio: 2.40:1
Frame rate mode: Constant
Frame rate: 23.976 (24000/1001) FPS
Color space: YUV
Chroma subsampling: 4:2:0
Bit depth: 8 bits
Scan type: Progressive
Bits/(Pixel*Frame): 0.161
Stream size: 1.37 GiB (67%)
Title: -=DoMiNo=-
Writing library: x264 core 164 r3179 -DoMiNo
Encoding settings: cabac=1 / ref=14 / deblock=1:-2:-2 / analyse=0×3:0×133 / me=umh / subme=10 / psy=1 / psy_rd=1.05:0.05 / mixed_ref=1 / me_range=32 / chroma_me=1 / trellis=2 / 8×8dct=1 / cqm=0 / deadzone=21,11 / fast_pskip=0 / chroma_qp_offset=-3 / threads=17 / lookahead_threads=3 / sliced_threads=0 / nr=0 / decimate=0 / interlaced=0 / bluray_compat=0 / constrained_intra=0 / bframes=10 / b_pyramid=2 / b_adapt=2 / b_bias=0 / direct=1 / weightb=1 / open_gop=0 / weightp=2 / keyint=250 / keyint_min=23 / scenecut=40 / intra_refresh=0 / rc_lookahead=60 / rc=crf / mbtree=0 / crf=17.5 / qcomp=0.60 / qpmin=0 / qpmax=69 / qpstep=4 / vbv_maxrate=50000 / vbv_bufsize=62500 / crf_max=0.0 / nal_hrd=none / filler=0 / ip_ratio=1.40 / pb_ratio=1.30 / aq=3:0.90
Language: English
Default: Yes
Forced: No

Audio #1
ID: 2
Format: AC-3
Format/Info: Audio Coding 3
Commercial name: Dolby Digital
Codec ID: A_AC3
Duration: 1 h 56 min
Bit rate mode: Constant
Bit rate: 384 kb/s
Channel (s): 6 channels
Channel layout: L R C LFE Ls Rs
Sampling rate: 48.0 kHz
Frame rate: 31.250 FPS (1536 SPF)
Compression mode: Lossy
Stream size: 321 MiB (15%)
Title: Dub
Language: Russian
Service kind: Complete Main
Default: Yes
Forced: No

Audio #2
ID: 3
Format: AC-3
Format/Info: Audio Coding 3
Commercial name: Dolby Digital
Codec ID: A_AC3
Duration: 1 h 56 min
Bit rate mode: Constant
Bit rate: 448 kb/s
Channel (s): 6 channels
Channel layout: L R C LFE Ls Rs
Sampling rate: 48.0 kHz
Frame rate: 31.250 FPS (1536 SPF)
Compression mode: Lossy
Stream size: 373 MiB (18%)
Title: Original
Language: English
Service kind: Complete Main
Default: No
Forced: No

Text #1
ID: 4
Format: UTF-8
Codec ID: S_TEXT/UTF8
Codec ID/Info: UTF-8 Plain Text
Duration: 1 h 53 min
Bit rate: 0 b/s
Frame rate: 0.004 FPS
Count of elements: 29
Stream size: 738 Bytes (0%)
Title: Forced
Language: Russian
Default: No
Forced: No

Text #2
ID: 5
Format: UTF-8
Codec ID: S_TEXT/UTF8
Codec ID/Info: UTF-8 Plain Text
Duration: 1 h 54 min
Bit rate: 113 b/s
Frame rate: 0.318 FPS
Count of elements: 2190
Stream size: 95.0 KiB (0%)
Title: Full
Language: Russian
Default: No
Forced: No

Text #3
ID: 6
Format: UTF-8
Codec ID: S_TEXT/UTF8
Codec ID/Info: UTF-8 Plain Text
Duration: 1 h 54 min
Bit rate: 81 b/s
Frame rate: 0.342 FPS
Count of elements: 2348
Stream size: 68.8 KiB (0%)
Title: Full
Language: English
Default: No
Forced: No

Text #4
ID: 7
Format: UTF-8
Codec ID: S_TEXT/UTF8
Codec ID/Info: UTF-8 Plain Text
Duration: 1 h 54 min
Bit rate: 95 b/s
Frame rate: 0.378 FPS
Count of elements: 2602
Stream size: 80.5 KiB (0%)
Title: SDH
Language: English
Default: No
Forced: No

Menu
00:00:00.000: en: Глава 01
00:06:58.001: en: Глава 02
00:16:54.472: en: Глава 03
00:23:57.227: en: Глава 04
00:33:17.579: en: Глава 05
00:41:15.515: en: Глава 06
00:47:13.831: en: Глава 07
00:53:37.089: en: Глава 08
00:59:02.330: en: Глава 09
01:07:27.418: en: Глава 10
01:13:15.474: en: Глава 11
01:18:04.972: en: Глава 12
01:26:43.990: en: Глава 13
01:36:28.199: en: Глава 14
01:46:20.165: en: Глава 15
01:50:28.288: en: Глава 16

Другие фильмы
У данной публикации пока нет комментариев.
Будь первым, оставь своё мнение в комментариях!
Информация
Посетители, находящиеся в группе Гости, не могут оставлять комментарии к данной публикации.
Самый популярный релиз недели
Донаты
Мы в соц. сетях / RSS

Лучшие релизы месяца
Лучшие SD недели
Лучшие 720p недели
Лучшие 1080p недели
Лучшие 4K недели
Вы недавно смотрели
Реклама
Последние комментарии
...

-=DoMiNo=-

9 апреля 2024 17:43

...

supermehanik

9 апреля 2024 16:22

...

selezinka

5 апреля 2024 16:20

...

Kirk1991

30 марта 2024 15:04

...

Robot

22 марта 2024 09:33

Реклама