+14

Выкуп / Bigongsikjakjeon / Ransomed (2023) BDRip 720p от DoMiNo & селезень | D

Информация о фильме
Название: Выкуп
Оригинальное название: Bigongsikjakjeon / Ransomed
Год выхода: 2023
Жанр: Боевик, комедия
Режиссер: Ким Сон-хун
В ролях: Ха Джон-у, Чу Джи-хун, Ю Сын-мок, Ким Ын-су, Лим Хён-гук, Ким Джон-су, Пак Хёк-квон, Берн Горман, Со Ён-сам, Чхве Джон-у

Описание:
Конец 1980-х. Сотрудник дипломатической службы внезапно получает зашифрованное сообщение от своего похищенного коллеги, которого долгое время считали погибшим. Он решает отправиться на поиски своего сослуживца и спасти его любой ценой, вступив в смертельную схватку с отъявленными преступниками.

Страна: Корея Южная
Студия: B&C CONTENT, Showbox
Продолжительность: 02:12:21
Перевод: Профессиональный (полное дублирование) | Видео Продакшн
Субтитры: Русские (Full), английские

Файл
Формат: Matroska
Качество: BDRip 720p
Видео: 1280x536 at 24.000 fps, [email protected], ~4025 kbps
Аудио 1: AC3, 6 ch, ~448 kbps - | Русский | Выкуп / Bigongsikjakjeon / Ransomed (2023) BDRip 720p от DoMiNo & селезень | D
Аудио 2: E-AC3, 6 ch, ~448 kbps - | Русский |
Аудио 3: AC3, 6 ch, ~640 kbps - | Корейский - Английский |
Формат субтитров: softsub (SRT)

Авторизуйтесь для получения доступа к скачиванию

Нет аккаунта? Регистрация открыта и займёт меньше минуты

Вход Регистрация

General
Unique ID: 169044567695364927993144892863512704456 (0×7F2CCCAB1E25B705302DD1FEA06DF5C8)
Complete name: T: Ransomed.2023.DUB.BDRip.720p.x264.seleZen.mkv
Format: Matroska
Format version: Version 4
File size: 5.14 GiB
Duration: 2 h 12 min
Overall bit rate: 5 564 kb/s
Frame rate: 24.000 FPS
Movie name: Ransomed.2023.DUB.BDRip.720p.x264.seleZen
Encoded date: 23.05.2024 09:55:02 UTC
Writing application: mkvmerge v84.0 ('Sleeper') 64-bit
Writing library: libebml v1.4.5 + libmatroska v1.7.1
Cover: Yes
Attachments: cover.jpg / small_cover.jpg

Video
ID: 1
Format: AVC
Format/Info: Advanced Video Codec
Format profile: [email protected]
Format settings: CABAC / 12 Ref Frames
Format settings, CABAC: Yes
Format settings, Reference: 12 frames
Codec ID: V_MPEG4/ISO/AVC
Duration: 2 h 12 min
Bit rate: 4 025 kb/s
Width: 1 280 pixels
Height: 536 pixels
Display aspect ratio: 2.39:1
Frame rate mode: Constant
Frame rate: 24.000 FPS
Color space: YUV
Chroma subsampling: 4:2:0
Bit depth: 8 bits
Scan type: Progressive
Bits/(Pixel*Frame): 0.244
Stream size: 3.72 GiB (72%)
Title: -=DoMiNo=-
Writing library: x264 core 164 r3191 -DoMiNo
Encoding settings: cabac=1 / ref=12 / deblock=1:-2:-2 / analyse=0×3:0×133 / me=umh / subme=10 / psy=1 / psy_rd=1.05:0.03 / mixed_ref=1 / me_range=32 / chroma_me=1 / trellis=2 / 8×8dct=1 / cqm=0 / deadzone=21,11 / fast_pskip=0 / chroma_qp_offset=-3 / threads=17 / lookahead_threads=4 / sliced_threads=0 / nr=0 / decimate=1 / interlaced=0 / bluray_compat=0 / constrained_intra=0 / bframes=12 / b_pyramid=2 / b_adapt=2 / b_bias=0 / direct=3 / weightb=1 / open_gop=0 / weightp=2 / keyint=240 / keyint_min=24 / scenecut=40 / intra_refresh=0 / rc_lookahead=60 / rc=crf / mbtree=0 / crf=16.8 / qcomp=0.60 / qpmin=0 / qpmax=69 / qpstep=4 / vbv_maxrate=50000 / vbv_bufsize=62500 / crf_max=0.0 / nal_hrd=none / filler=0 / ip_ratio=1.40 / pb_ratio=1.30 / aq=3:0.80
Language: English
Default: Yes
Forced: No
Color range: Limited
Color primaries: BT.709
Transfer characteristics: BT.709
Matrix coefficients: BT.709

Audio #1
ID: 2
Format: AC-3
Format/Info: Audio Coding 3
Commercial name: Dolby Digital
Codec ID: A_AC3
Duration: 2 h 12 min
Bit rate mode: Constant
Bit rate: 448 kb/s
Channel (s): 6 channels
Channel layout: L R C LFE Ls Rs
Sampling rate: 48.0 kHz
Frame rate: 31.250 FPS (1536 SPF)
Compression mode: Lossy
Stream size: 424 MiB (8%)
Title: DUB -Видео Продакшн
Language: Russian
Service kind: Complete Main
Default: Yes
Forced: No
Dialog Normalization: -28 dB
compr: -0.28 dB
cmixlev: -3.0 dB
surmixlev: -3 dB
dmixmod: Lo/Ro
ltrtcmixlev: -3.0 dB
ltrtsurmixlev: -3.0 dB
lorocmixlev: -3.0 dB
lorosurmixlev: -3.0 dB
dialnorm_Average: -28 dB
dialnorm_Minimum: -28 dB
dialnorm_Maximum: -28 dB

Audio #2
ID: 3
Format: E-AC-3
Format/Info: Enhanced AC-3
Commercial name: Dolby Digital Plus
Codec ID: A_EAC3
Duration: 2 h 12 min
Bit rate mode: Constant
Bit rate: 448 kb/s
Channel (s): 6 channels
Channel layout: L R C LFE Ls Rs
Sampling rate: 48.0 kHz
Frame rate: 31.250 FPS (1536 SPF)
Compression mode: Lossy
Stream size: 424 MiB (8%)
Title: DUB -Видео Продакшн
Language: Russian
Service kind: Complete Main
Default: No
Forced: No
Dialog Normalization: -28 dB
compr: -0.28 dB
dmixmod: Lo/Ro
ltrtcmixlev: -3.0 dB
ltrtsurmixlev: -3.0 dB
lorocmixlev: -3.0 dB
lorosurmixlev: -3.0 dB
dialnorm_Average: -28 dB
dialnorm_Minimum: -28 dB
dialnorm_Maximum: -28 dB

Audio #3
ID: 4
Format: AC-3
Format/Info: Audio Coding 3
Commercial name: Dolby Digital
Codec ID: A_AC3
Duration: 2 h 12 min
Bit rate mode: Constant
Bit rate: 640 kb/s
Channel (s): 6 channels
Channel layout: L R C LFE Ls Rs
Sampling rate: 48.0 kHz
Frame rate: 31.250 FPS (1536 SPF)
Compression mode: Lossy
Stream size: 606 MiB (12%)
Title: Original
Language: Korean
Service kind: Complete Main
Default: No
Forced: No
Dialog Normalization: -31 dB
cmixlev: -4.5 dB
surmixlev: -6 dB
dialnorm_Average: -31 dB
dialnorm_Minimum: -31 dB
dialnorm_Maximum: -31 dB

Text #1
ID: 5
Format: UTF-8
Codec ID: S_TEXT/UTF8
Codec ID/Info: UTF-8 Plain Text
Duration: 2 h 7 min
Bit rate: 71 b/s
Frame rate: 0.194 FPS
Count of elements: 1479
Stream size: 66.7 KiB (0%)
Title: Full
Language: Russian
Default: No
Forced: No

Text #2
ID: 6
Format: UTF-8
Codec ID: S_TEXT/UTF8
Codec ID/Info: UTF-8 Plain Text
Duration: 2 h 6 min
Bit rate: 43 b/s
Frame rate: 0.185 FPS
Count of elements: 1406
Stream size: 40.5 KiB (0%)
Title: Full
Language: English
Default: No
Forced: No

Menu
00:00:00.000: en: Глава 01
00:10:36.500: en: Глава 02
00:18:44.375: en: Глава 03
00:29:33.458: en: Глава 04
00:43:53.750: en: Глава 05
00:52:52.708: en: Глава 06
01:05:19.416: en: Глава 07
01:17:09.666: en: Глава 08
01:28:13.791: en: Глава 09
01:44:18.041: en: Глава 10
01:57:41.208: en: Глава 11
02:03:48.208: en: Глава 12

Другие фильмы
У данной публикации пока нет комментариев.
Будь первым, оставь своё мнение в комментариях!
Информация
Посетители, находящиеся в группе Гости, не могут оставлять комментарии к данной публикации.
Самый популярный релиз недели
Донаты
Мы в соц. сетях / RSS

Лучшие релизы месяца
Лучшие SD недели
Лучшие 720p недели
Лучшие 1080p недели
Лучшие 4K недели
Вы недавно смотрели
Реклама
Последние комментарии
...

Bonzo

14 июня 2024 14:52

...

rmzshka

13 июня 2024 17:48

...

rmzshka

13 июня 2024 12:24

...

LisNick

13 июня 2024 08:45

...

SkySpirit

8 июня 2024 19:54

Реклама