+5

Конан-варвар / Conan the Barbarian (1982) UHD BDRemux 2160p от селезень | 4K | HDR | Dolby Vision Profile 8 | P

Информация о фильме
Название: Конан-варвар
Оригинальное название: Conan the Barbarian
Год выхода: 1982
Жанр: фэнтези, боевик, приключения
Режиссер: Джон Милиус
В ролях: Арнольд Шварценеггер, Джеймс Эрл Джонс, Макс фон Сюдов, Сэндал Бергман, Бен Дэвидсон, Кассандра Гава, Джерри Лопес, Мако, Валери Кеннессен, Уильям Смит

О фильме: В детстве Конан стал свидетелем жестокого убийства своих родителей беспощадным Тулса Думом. Его обезумевшие от запаха крови солдаты разорили и сожгли дотла родную деревню Конана. Мальчик вырастает в рабстве и превращается в обладающего неимоверной силой и мышечной массой непобедимого воина.

Поклявшись отомстить за родителей, он отправляется на поиски своего врага. Его путь полон невероятных приключений, отчаянных поединков, неожиданных встреч и опасностей.

Конан с достоинством проходит все испытания, но сможет ли он победить в последней и самой опасной битве в его жизни, битве с непобедимым Тулса Думом?


Страна: США, Мексика
Студия: A-Team, Dino De Laurentiis Productions, Edward R. Pressman Film Corporation, Estudios Churubusco Azteca S.A., Universal Pictures
Продолжительность: 02:10:24
Перевод: Профессиональный многоголосый | Карусель

Качество: BDRemux 2160p
Видео: 3840x2160 at 23.976 fps, MPEG-H HEVC HDR Video, 81800 kbps
Аудио #01: 48 kHz, AC3, 5.1, 448 Kbps | Профессиональный многоголосый | Карусель | RUS |Конан-варвар / Conan the Barbarian (1982) UHD  BDRemux 2160p от селезень | 4K | HDR | Dolby Vision Profile 8 | P
Аудио #02: 48 kHz, TrueHD, 7.1, 2808 Kbps | Оригинал | ENG |
Аудио #03: 48 kHz, AC3, 5.1, 640 Kbps | Оригинал | ENG |
Субтитры: Русские, Английские

Конан-варвар / Conan the Barbarian (1982) UHD  BDRemux 2160p от селезень | 4K | HDR | Dolby Vision Profile 8 | P

Авторизуйтесь для получения доступа к скачиванию

Нет аккаунта? Регистрация открыта и займёт меньше минуты

Вход Регистрация

General
Unique ID : 279322763662638933632044455311483715695 (0xD2239B83116240D0A7159970535DC06F)
Complete name : H:\VideoH\Conan.the.Barbarian.1982.BDREMUX.2160p.HDR.DVP8.seleZen.mkv
Format : Matroska
Format version : Version 4
File size : 78.1 GiB
Duration : 2 h 10 min
Overall bit rate mode : Variable
Overall bit rate : 85.7 Mb/s
Frame rate : 23.976 FPS
Movie name : Conan the Barbarian 1982 from seleZen
Encoded date : 2024-02-14 17:30:30 UTC
Writing application : mkvmerge v80.0 ('Roundabout') 64-bit
Writing library : libebml v1.4.4 + libmatroska v1.7.1

Video
ID : 1
ID in the original source m : 4117 (0x1015)
Format : HEVC
Format/Info : High Efficiency Video Coding
Format profile : Main [email protected]@High
HDR format : Dolby Vision, Version 1.0, dvhe.08.06, BL+RPU, Blu-ray compatible / SMPTE ST 2086, HDR10 compatible
Codec ID : V_MPEGH/ISO/HEVC
Duration : 2 h 10 min
Bit rate : 81.8 Mb/s
Width : 3 840 pixels
Height : 2 160 pixels
Display aspect ratio : 16:9
Frame rate mode : Constant
Frame rate : 23.976 (24000/1001) FPS
Color space : YUV
Chroma subsampling : 4:2:0 (Type 2)
Bit depth : 10 bits
Bits/(Pixel*Frame) : 0.411
Stream size : 74.5 GiB (95%)
Language : English
Default : No
Forced : No
Color range : Limited
Color primaries : BT.2020
Transfer characteristics : PQ
Matrix coefficients : BT.2020 non-constant
Mastering display color pri : BT.2020
Mastering display luminance : min: 0.0001 cd/m2, max: 1000 cd/m2
Original source medium : Blu-ray

Audio #1
ID : 2
Format : AC-3
Format/Info : Audio Coding 3
Commercial name : Dolby Digital
Codec ID : A_AC3
Duration : 2 h 10 min
Bit rate mode : Constant
Bit rate : 448 kb/s
Channel(s) : 6 channels
Channel layout : L R C LFE Ls Rs
Sampling rate : 48.0 kHz
Frame rate : 31.250 FPS (1536 SPF)
Compression mode : Lossy
Stream size : 418 MiB (1%)
Title : MVO_Карусель
Language : Russian
Service kind : Complete Main
Default : Yes
Forced : No

Audio #2
ID : 3
Format : MLP FBA 16-ch
Format/Info : Meridian Lossless Packing FBA with 16-channel presentation
Commercial name : Dolby TrueHD with Dolby Atmos
Codec ID : A_TRUEHD
Duration : 2 h 10 min
Bit rate mode : Variable
Bit rate : 2 808 kb/s
Maximum bit rate : 3 489 kb/s
Channel(s) : 8 channels
Channel layout : L R C LFE Ls Rs Lb Rb
Sampling rate : 48.0 kHz
Frame rate : 1 200.000 FPS (40 SPF)
Compression mode : Lossless
Stream size : 2.56 GiB (3%)
Title : Original
Language : English
Default : No
Forced : No
Number of dynamic objects : 15
Bed channel count : 1 channel
Bed channel configuration : LFE

Audio #3
ID : 4
Format : AC-3
Format/Info : Audio Coding 3
Commercial name : Dolby Digital
Codec ID : A_AC3
Duration : 2 h 10 min
Bit rate mode : Constant
Bit rate : 640 kb/s
Channel(s) : 6 channels
Channel layout : L R C LFE Ls Rs
Sampling rate : 48.0 kHz
Frame rate : 31.250 FPS (1536 SPF)
Compression mode : Lossy
Stream size : 597 MiB (1%)
Language : English
Service kind : Complete Main
Default : No
Forced : No

Text #1
ID : 5
Format : UTF-8
Codec ID : S_TEXT/UTF8
Codec ID/Info : UTF-8 Plain Text
Duration : 2 h 6 min
Bit rate : 23 b/s
Frame rate : 0.059 FPS
Count of elements : 449
Stream size : 21.5 KiB (0%)
Title : Full
Language : Russian
Default : No
Forced : No

Text #2
ID : 6
Format : UTF-8
Codec ID : S_TEXT/UTF8
Codec ID/Info : UTF-8 Plain Text
Duration : 2 h 9 min
Bit rate : 18 b/s
Frame rate : 0.081 FPS
Count of elements : 627
Stream size : 17.2 KiB (0%)
Title : SDH
Language : English
Default : No
Forced : No

Menu
00:00:00.000 : en:Глава 01
00:13:19.674 : en:Глава 02
00:20:54.211 : en:Глава 03
00:29:40.320 : en:Глава 04
00:41:27.568 : en:Глава 05
00:51:47.479 : en:Глава 06
00:59:46.541 : en:Глава 07
01:15:55.050 : en:Глава 08
01:26:27.015 : en:Глава 09
01:38:26.025 : en:Глава 10
01:44:28.179 : en:Глава 11
01:56:17.304 : en:Глава 12

Другие фильмы
У данной публикации пока нет комментариев.
Будь первым, оставь своё мнение в комментариях!
Информация
Посетители, находящиеся в группе Гости, не могут оставлять комментарии к данной публикации.
Самый популярный релиз недели
Донаты
Мы в соц. сетях / RSS

Лучшие релизы месяца
Лучшие SD недели
Лучшие 720p недели
Лучшие 1080p недели
Лучшие 4K недели
Вы недавно смотрели
Реклама
Последние комментарии
...

-=DoMiNo=-

9 апреля 2024 17:43

...

supermehanik

9 апреля 2024 16:22

...

selezinka

5 апреля 2024 16:20

...

Kirk1991

30 марта 2024 15:04

...

Robot

22 марта 2024 09:33

Реклама