+6

Эбигейл / Abigail (2024) BDRip от DoMiNo & селезень | P | Jaskier

Информация о фильме
Название: Эбигейл
Оригинальное название: Abigail
Год выхода: 2024
Жанр: Ужасы, триллер
Режиссер: Мэттью Беттинелли, Тайлер Джиллетт
В ролях: Мелисса Баррера, Дэн Стивенс, Алиша Вейр, Уильям Кэтлетт, Кэтрин Ньютон, Кевин Дюран, Ангус Клауд, Джанкарло Эспозито, Мэттью Гуд и др.

О фильме:
Банда преступников похищает 12-летнюю балерину, дочь криминального авторитета. Спрятавшись в уединённом особняке, они ещё не догадываются, что влиятельный отец девочки - далеко не главная их проблема.

Страна: США, Ирландия, Канада / Project X Entertainment, Québec Production Services Tax Credit, Radio Silence Productions, Wild Atlantic Pictures
Продолжительность: 01:49:32
Перевод: Профессиональный (многоголосый закадровый) | Jaskier 18 +

Файл
Формат: AVI
Качество: BDRip
Исходник: Abigail.2024.1080p.BluRay.REMUX.AVC.Atmos-TRiToN
Видео: 720x304 at 23.976 fps, XviD 69, ~1514 kbps
Аудио: AC3, 6 ch, ~384 kbps - | Русский | Эбигейл / Abigail (2024) BDRip от DoMiNo & селезень | P | Jaskier
Субтитры: Нет

Авторизуйтесь для получения доступа к скачиванию

Нет аккаунта? Регистрация открыта и займёт меньше минуты

Вход Регистрация

General
Complete name: U: Abigail.2024.MVO.BDRip.seleZen.avi
Format: AVI
Format/Info: Audio Video Interleave
Format settings: BitmapInfoHeader / WaveFormatEx
File size: 1.46 GiB
Duration: 1 h 49 min
Overall bit rate: 1 907 kb/s
Frame rate: 23.976 FPS
Movie name: Abigail.2024.MVO.BDRip.seleZen
Writing application: VirtualDubModRus 1.5.10.2 (build 2542/release)
Writing library: VirtualDubMod build 2542/release
Copyright: -=DoMiNo=-

Video
ID: 0
Format: MPEG-4 Visual
Format profile: Advanced Simple@L5
Format settings: BVOP1 / Custom Matrix
Format settings, BVOP: 1
Format settings, QPel: No
Format settings, GMC: No warppoints
Format settings, Matrix: Custom
Codec ID: XVID
Codec ID/Hint: XviD
Duration: 1 h 49 min
Bit rate: 1 514 kb/s
Width: 720 pixels
Height: 304 pixels
Display aspect ratio: 2.39:1
Frame rate: 23.976 (24000/1001) FPS
Color space: YUV
Chroma subsampling: 4:2:0
Bit depth: 8 bits
Scan type: Progressive
Compression mode: Lossy
Bits/(Pixel*Frame): 0.288
Stream size: 1.16 GiB (79%)
Writing library: XviD 69

Audio
ID: 1
Format: AC-3
Format/Info: Audio Coding 3
Commercial name: Dolby Digital
Codec ID: 2000
Duration: 1 h 49 min
Bit rate mode: Constant
Bit rate: 384 kb/s
Channel (s): 6 channels
Channel layout: L R C LFE Ls Rs
Sampling rate: 48.0 kHz
Frame rate: 31.250 FPS (1536 SPF)
Compression mode: Lossy
Stream size: 301 MiB (20%)
Alignment: Split across interleaves
Interleave, duration: 42 ms (1.00 video frame)
Interleave, preload duratio: 500 ms
Service kind: Complete Main
Dialog Normalization: -31 dB
cmixlev: -4.5 dB
surmixlev: -6 dB
dialnorm_Average: -31 dB
dialnorm_Minimum: -31 dB
dialnorm_Maximum: -31 dB

Другие фильмы
У данной публикации пока нет комментариев.
Будь первым, оставь своё мнение в комментариях!
Информация
Посетители, находящиеся в группе Гости, не могут оставлять комментарии к данной публикации.
Самый популярный релиз недели
Донаты
Мы в соц. сетях / RSS

Лучшие релизы месяца
Лучшие SD недели
Лучшие 720p недели
Лучшие 1080p недели
Лучшие 4K недели
Вы недавно смотрели
Реклама
Последние комментарии
...

rmzshka

12 июля 2024 11:30

...

Rustik99

12 июля 2024 10:11

...

-=DoMiNo=-

11 июля 2024 23:42

...

rmzshka

11 июля 2024 11:28

...

-=DoMiNo=-

10 июля 2024 15:08

Реклама