+7

Территория зла / Land of Bad (2024) BDRip от DoMiNo & селезень | D

Информация о фильме
Название: Территория зла
Оригинальное название: Land of Bad
Год выхода: 2024
Жанр: боевик, криминал
Режиссер: Уильям Юбэнк / William Eubank
В ролях: Лиам Хемсворт, Рассел Кроу, Люк Хемсворт, Рики Уиттл, Майло Вентимилья, Chika Ikogwe, Дэниэл Макферсон, Роберт Рабия, Джек Финстерер, Chris Masters Mah и др.

О фильме:
Рипер, оператор беспилотника, оказывает воздушную поддержку команде, которая попадает в ловушку, оставшись без оружия. Теперь их единственным средством связи и шансом на выживание становится беспилотник. «Территория зла» — экшен-триллер с Расселом Кроу и Лиамом Хемсвортом.

Страна: США / Volition Media Partners, Broken Open Pictures, Highland Film Group (HFG)
Продолжительность: 01:53:37
Перевод: Дублированный | Мосфильм-Мастер
Субтитры: Русские (Forced - хардсаб)

Файл
Формат: AVI
Качество: BDRip
Исходник: Land.of.Bad.2024.1080p.Blu-ray.Remux.AVC.TrueHD.5.1-CiNEPHiLES
Видео: 720x304 at 23.976 fps, XviD 69, ~1381 kbps
Аудио: AC3, 6 ch, ~448 kbps - | Русский | Территория зла / Land of Bad (2024) BDRip от DoMiNo & селезень | D
Формат субтитров: хардсаб

Авторизуйтесь для получения доступа к скачиванию

Нет аккаунта? Регистрация открыта и займёт меньше минуты

Вход Регистрация

General
Complete name: U: Land.of.Bad.2024.DUB.BDRip.seleZen.avi
Format: AVI
Format/Info: Audio Video Interleave
Format settings: BitmapInfoHeader / WaveFormatEx
File size: 1.46 GiB
Duration: 1 h 53 min
Overall bit rate: 1 838 kb/s
Frame rate: 23.976 FPS
Movie name: Land.of.Bad.2024.DUB.BDRip.seleZen
Writing application: VirtualDubModRus 1.5.10.2 (build 2542/release)
Writing library: VirtualDubMod build 2542/release
Copyright: -=DoMiNo=-

Video
ID: 0
Format: MPEG-4 Visual
Format profile: Advanced Simple@L5
Format settings: BVOP1 / Custom Matrix
Format settings, BVOP: 1
Format settings, QPel: No
Format settings, GMC: No warppoints
Format settings, Matrix: Custom
Codec ID: XVID
Codec ID/Hint: XviD
Duration: 1 h 53 min
Bit rate: 1 381 kb/s
Width: 720 pixels
Height: 304 pixels
Display aspect ratio: 2.39:1
Frame rate: 23.976 (24000/1001) FPS
Color space: YUV
Chroma subsampling: 4:2:0
Bit depth: 8 bits
Scan type: Progressive
Compression mode: Lossy
Bits/(Pixel*Frame): 0.263
Stream size: 1.10 GiB (75%)
Writing library: XviD 69

Audio
ID: 1
Format: AC-3
Format/Info: Audio Coding 3
Commercial name: Dolby Digital
Codec ID: 2000
Duration: 1 h 53 min
Bit rate mode: Constant
Bit rate: 448 kb/s
Channel (s): 6 channels
Channel layout: L R C LFE Ls Rs
Sampling rate: 48.0 kHz
Frame rate: 31.250 FPS (1536 SPF)
Compression mode: Lossy
Stream size: 364 MiB (24%)
Alignment: Split across interleaves
Interleave, duration: 42 ms (1.00 video frame)
Interleave, preload duratio: 500 ms
Service kind: Complete Main
Dialog Normalization: -24 dB
compr: -0.28 dB
cmixlev: -3.0 dB
surmixlev: -3 dB
mixlevel: 285 dB
roomtyp: 3
ltrtcmixlev: -3.0 dB
ltrtsurmixlev: -3.0 dB
lorocmixlev: -3.0 dB
lorosurmixlev: -4.5 dB
dialnorm_Average: -24 dB
dialnorm_Minimum: -24 dB
dialnorm_Maximum: -24 dB

Другие фильмы
У данной публикации пока нет комментариев.
Будь первым, оставь своё мнение в комментариях!
Информация
Посетители, находящиеся в группе Гости, не могут оставлять комментарии к данной публикации.
Самый популярный релиз недели
Донаты
Мы в соц. сетях / RSS

Лучшие релизы месяца
Лучшие SD недели
Лучшие 720p недели
Лучшие 1080p недели
Лучшие 4K недели
Вы недавно смотрели
Реклама
Последние комментарии
...

rmzshka

12 июля 2024 11:30

...

Rustik99

12 июля 2024 10:11

...

-=DoMiNo=-

11 июля 2024 23:42

...

rmzshka

11 июля 2024 11:28

...

-=DoMiNo=-

10 июля 2024 15:08

Реклама