+10

Полицейский из Беверли-Хиллз: Аксель Фоули / Beverly Hills Cop: Axel F (2024) WEB-DL 1080p от селезень | D, P

Информация о фильме
Название: Полицейский из Беверли-Хиллз: Аксель Фоули
Оригинальное название: Beverly Hills Cop: Axel F
Год выхода: 2024
Жанр: боевик, триллер, комедия, криминал
Режиссер: Марк Моллой
В ролях: Эдди Мерфи, Джадж Райнхолд, Джозеф Гордон-Левитт, Кевин Бейкон, Бронсон Пиншо, Джон Эштон, Пол Райзер, Тейлор Пейдж, Сара Старк, Джеймс Роджерс, Патриша Белчер, Эффион Крокетт, Сюзанн Форд, Джованни Крус, Сара Эбрелл

О фильме:
Детектив Аксель Фоули снова возвращается на улицы Беверли-Хиллз. После того, как жизнь его дочери Джейн оказывается в опасности, они объединяют силы с новым партнером, детективом Бобби Эбботом, и старыми приятелями — Билли Роузвудом и Джоном Тэггартом, чтобы задать жару негодяям и раскрыть преступный заговор.

Страна: США
Продолжительность: 01:57:56
Перевод: Дублированный (официальный) | Videofilm Int.
Перевод: Профессиональный (многоголосый, закадровый) | TVShows
Субтитры: Русские (Forced, 2x Full), английские (Forced, SDH)

Файл
Качество: WEB-DL 1080p | NF
Формат: MKV
Видео: 1920x1080, 24.000 fps, MPEG-4 AVC, ~5000 Kbps
Аудио 1: AC3, 6 ch, ~640 kbps - | Русский | Полицейский из Беверли-Хиллз: Аксель Фоули / Beverly Hills Cop: Axel F (2024) WEB-DL 1080p от селезень | D, P | Videofilm Int.
Аудио 2: AC3, 6 ch, ~384 kbps - | Русский | | TVShows
Аудио 3: E-AC-3 JOC, 6 ch, ~768 kbps - | Английский |
Формат субтитров: softsub (SRT)

Авторизуйтесь для получения доступа к скачиванию

Нет аккаунта? Регистрация открыта и займёт меньше минуты

Вход Регистрация

General
Unique ID: 109523111774553298665865702977715597981 (0×526562518DB4B728CE89BE8E75C0729D)
Complete name: L: Beverly.Hills.Cop.Axel.F.2024.NF.WEB-DL.1080p.x264.seleZen.mkv
Format: Matroska
Format version: Version 4
File size: 5.50 GiB
Duration: 1 h 57 min
Overall bit rate mode: Variable
Overall bit rate: 6 676 kb/s
Frame rate: 24.000 FPS
Movie name: Beverly.Hills.Cop.Axel.F.2024.NF.WEB-DL.1080p.x264.seleZen
Encoded date: 08.07.2024 07:19:02 UTC
Writing application: mkvmerge v85.0 ('Shame For You') 64-bit
Writing library: libebml v1.4.5 + libmatroska v1.7.1
Cover: Yes
Attachments: cover.jpg / small_cover.jpg

Video
ID: 1
Format: AVC
Format/Info: Advanced Video Codec
Format profile: Main@L4
Format settings: CABAC / 3 Ref Frames
Format settings, CABAC: Yes
Format settings, Reference: 3 frames
Codec ID: V_MPEG4/ISO/AVC
Duration: 1 h 57 min
Bit rate mode: Variable
Bit rate: 5 000 kb/s
Maximum bit rate: 7 500 kb/s
Width: 1 920 pixels
Height: 1 080 pixels
Display aspect ratio: 16:9
Frame rate mode: Constant
Frame rate: 24.000 FPS
Color space: YUV
Chroma subsampling: 4:2:0
Bit depth: 8 bits
Scan type: Progressive
Bits/(Pixel*Frame): 0.100
Stream size: 4.02 GiB (73%)
Title: -=DoMiNo=-
Writing library: x264 core 148 r2727 7d026e8
Encoding settings: cabac=1 / ref=3 / deblock=1:0:0 / analyse=0×1:0×111 / me=umh / subme=10 / psy=1 / psy_rd=1.00:0.00 / mixed_ref=1 / me_range=24 / chroma_me=1 / trellis=2 / 8×8dct=0 / cqm=0 / deadzone=21,11 / fast_pskip=1 / chroma_qp_offset=-2 / threads=6 / lookahead_threads=1 / sliced_threads=0 / nr=0 / decimate=1 / interlaced=0 / bluray_compat=0 / stitchable=1 / constrained_intra=0 / bframes=2 / b_pyramid=0 / b_adapt=2 / b_bias=0 / direct=3 / weightb=1 / open_gop=0 / weightp=2 / keyint=240 / keyint_min=121 / scenecut=0 / intra_refresh=0 / rc_lookahead=48 / rc=2pass / mbtree=1 / bitrate=5000 / ratetol=1.0 / qcomp=0.50 / qpmin=6 / qpmax=51 / qpstep=4 / cplxblur=20.0 / qblur=0.5 / vbv_maxrate=7500 / vbv_bufsize=10000 / nal_hrd=vbr / filler=0 / ip_ratio=1.40 / aq=1:1.00
Language: English
Default: Yes
Forced: No

Audio #1
ID: 2
Format: AC-3
Format/Info: Audio Coding 3
Commercial name: Dolby Digital
Codec ID: A_AC3
Duration: 1 h 57 min
Bit rate mode: Constant
Bit rate: 640 kb/s
Channel (s): 6 channels
Channel layout: L R C LFE Ls Rs
Sampling rate: 48.0 kHz
Frame rate: 31.250 FPS (1536 SPF)
Compression mode: Lossy
Stream size: 540 MiB (10%)
Title: DUB — Videofilm Int.
Language: Russian
Service kind: Complete Main
Default: Yes
Forced: No
Dialog Normalization: -24 dB
compr: -0.28 dB
cmixlev: -3.0 dB
surmixlev: -3 dB
mixlevel: 285 dB
roomtyp: 3
ltrtcmixlev: -3.0 dB
ltrtsurmixlev: -3.0 dB
lorocmixlev: -3.0 dB
lorosurmixlev: -4.5 dB
dialnorm_Average: -24 dB
dialnorm_Minimum: -24 dB
dialnorm_Maximum: -24 dB

Audio #2
ID: 3
Format: AC-3
Format/Info: Audio Coding 3
Commercial name: Dolby Digital
Codec ID: A_AC3
Duration: 1 h 57 min
Bit rate mode: Constant
Bit rate: 384 kb/s
Channel (s): 6 channels
Channel layout: L R C LFE Ls Rs
Sampling rate: 48.0 kHz
Frame rate: 31.250 FPS (1536 SPF)
Compression mode: Lossy
Stream size: 324 MiB (6%)
Title: MVO — TVShows
Language: Russian
Service kind: Complete Main
Default: No
Forced: No
Dialog Normalization: -31 dB
cmixlev: -4.5 dB
surmixlev: -6 dB
dialnorm_Average: -31 dB
dialnorm_Minimum: -31 dB
dialnorm_Maximum: -31 dB

Audio #3
ID: 4
Format: E-AC-3 JOC
Format/Info: Enhanced AC-3 with Joint Object Coding
Commercial name: Dolby Digital Plus with Dolby Atmos
Codec ID: A_EAC3
Duration: 1 h 57 min
Bit rate mode: Constant
Bit rate: 768 kb/s
Channel (s): 6 channels
Channel layout: L R C LFE Ls Rs
Sampling rate: 48.0 kHz
Frame rate: 31.250 FPS (1536 SPF)
Compression mode: Lossy
Stream size: 648 MiB (12%)
Title: English
Language: English
Service kind: Complete Main
Default: No
Forced: No
Complexity index: 16
Number of dynamic objects: 15
Bed channel count: 1 channel
Bed channel configuration: LFE
Dialog Normalization: -27 dB
compr: -0.28 dB
dialnorm_Average: -27 dB
dialnorm_Minimum: -27 dB
dialnorm_Maximum: -27 dB

Text #1
ID: 5
Format: UTF-8
Codec ID: S_TEXT/UTF8
Codec ID/Info: UTF-8 Plain Text
Duration: 1 h 46 min
Bit rate: 1 b/s
Frame rate: 0.004 FPS
Count of elements: 28
Stream size: 993 Bytes (0%)
Title: Forced
Language: Russian
Default: No
Forced: No

Text #2
ID: 6
Format: UTF-8
Codec ID: S_TEXT/UTF8
Codec ID/Info: UTF-8 Plain Text
Duration: 1 h 48 min
Bit rate: 135 b/s
Frame rate: 0.249 FPS
Count of elements: 1626
Stream size: 108 KiB (0%)
Title: Full v1
Language: Russian
Default: No
Forced: No

Text #3
ID: 7
Format: UTF-8
Codec ID: S_TEXT/UTF8
Codec ID/Info: UTF-8 Plain Text
Duration: 1 h 54 min
Bit rate: 111 b/s
Frame rate: 0.259 FPS
Count of elements: 1780
Stream size: 93.7 KiB (0%)
Title: Full v2
Language: Russian
Default: No
Forced: No

Text #4
ID: 8
Format: UTF-8
Codec ID: S_TEXT/UTF8
Codec ID/Info: UTF-8 Plain Text
Duration: 42 min 16 s
Bit rate: 0 b/s
Frame rate: 0.002 FPS
Count of elements: 4
Stream size: 105 Bytes (0%)
Title: Forced
Language: English
Default: No
Forced: No

Text #5
ID: 9
Format: UTF-8
Codec ID: S_TEXT/UTF8
Codec ID/Info: UTF-8 Plain Text
Duration: 1 h 51 min
Bit rate: 101 b/s
Frame rate: 0.336 FPS
Count of elements: 2258
Stream size: 83.2 KiB (0%)
Title: SDH
Language: English
Default: No
Forced: No

Menu
00:00:00.000: en: Part 01
01:49:11.450: en: Credits

Другие фильмы
У данной публикации пока нет комментариев.
Будь первым, оставь своё мнение в комментариях!
Информация
Посетители, находящиеся в группе Гости, не могут оставлять комментарии к данной публикации.
Самый популярный релиз недели
Донаты
Мы в соц. сетях / RSS

Лучшие релизы месяца
Лучшие SD недели
Лучшие 720p недели
Лучшие 1080p недели
Лучшие 4K недели
Вы недавно смотрели
Реклама
Последние комментарии
...

rmzshka

12 июля 2024 11:30

...

Rustik99

12 июля 2024 10:11

...

-=DoMiNo=-

11 июля 2024 23:42

...

rmzshka

11 июля 2024 11:28

...

-=DoMiNo=-

10 июля 2024 15:08

Реклама