+9

Воображаемые друзья / IF (2024) WEB-DLRip от DoMiNo & селезень | P

Информация о фильме
Название: Воображаемые друзья
Оригинальное название: IF
Год выхода: 2024
Жанр: фэнтези, мультфильм, драма, комедия, семейный
Режиссер: Джон Красински
В ролях: Кэйли Флеминг, Райан Рейнольдс, Джон Красински, Фиона Шоу, Стив Карелл, Фиби Уоллер-Бридж, Луис Госсетт мл., Алан С. Ким, Лайза Колон-Зайас, Бобби Мойнахан

О фильме:
Что если выдуманные приятели детей существуют на самом деле и никуда не исчезают, когда ребенок взрослеет? В таком мире живет Беа — похоронившая мать 12-летняя девочка, которая однажды замечает огромного фиолетового монстра, гуляющего по улицам Нью-Йорка. Девочке быстро объясняют, как на самом деле устроен мир, поэтому Беа решает напоминать скучным взрослым о тех, кого они когда-то забыли.

Страна: США, Канада
Студия: Maximum Effort, Paramount Pictures, Platinum Dunes
Продолжительность: 01:47:25
Перевод: Профессиональный (многоголосый, закадровый) | Soundmasters

Файл
Формат: AVI
Качество: WEB-DLRip
Видео: 704x384 at 23.976 fps, XviD 69, ~1495 kbps
Аудио: AC3, 6 ch, ~448 kbps - | Русский | Воображаемые друзья / IF (2024) WEB-DLRip от DoMiNo & селезень | P
Субтитры: Нет

Авторизуйтесь для получения доступа к скачиванию

Нет аккаунта? Регистрация открыта и займёт меньше минуты

Вход Регистрация

General
Complete name: S: IF.2024.MVO.WEB-DLRip.seleZen.avi
Format: AVI
Format/Info: Audio Video Interleave
Format settings: BitmapInfoHeader / WaveFormatEx
File size: 1.46 GiB
Duration: 1 h 47 min
Overall bit rate: 1 950 kb/s
Frame rate: 23.976 FPS
Movie name: IF.2024.MVO.WEB-DLRip.seleZen
Writing application: VirtualDubModRus 1.5.10.2 (build 2542/release)
Writing library: VirtualDubMod build 2542/release
Copyright: -=DoMiNo=-

Video
ID: 0
Format: MPEG-4 Visual
Format profile: Advanced Simple@L5
Format settings: BVOP1 / Custom Matrix
Format settings, BVOP: 1
Format settings, QPel: No
Format settings, GMC: No warppoints
Format settings, Matrix: Custom
Codec ID: XVID
Codec ID/Hint: XviD
Duration: 1 h 47 min
Bit rate: 1 495 kb/s
Width: 704 pixels
Height: 384 pixels
Display aspect ratio: 1.85:1
Frame rate: 23.976 (24000/1001) FPS
Color space: YUV
Chroma subsampling: 4:2:0
Bit depth: 8 bits
Scan type: Progressive
Compression mode: Lossy
Bits/(Pixel*Frame): 0.231
Stream size: 1.12 GiB (77%)
Writing library: XviD 69

Audio
ID: 1
Format: AC-3
Format/Info: Audio Coding 3
Commercial name: Dolby Digital
Codec ID: 2000
Duration: 1 h 47 min
Source duration: 1 h 47 min
Bit rate mode: Constant
Bit rate: 448 kb/s
Channel (s): 6 channels
Channel layout: L R C LFE Ls Rs
Sampling rate: 48.0 kHz
Frame rate: 31.250 FPS (1536 SPF)
Bit depth: 16 bits
Compression mode: Lossy
Stream size: 344 MiB (23%)
Alignment: Split across interleaves
Interleave, duration: 69 ms (1.64 video frames)
Interleave, preload duratio: 548 ms
Service kind: Complete Main
Dialog Normalization: -31 dB
cmixlev: -4.5 dB
surmixlev: -6 dB
dialnorm_Average: -31 dB
dialnorm_Minimum: -31 dB
dialnorm_Maximum: -31 dB

Другие фильмы
У данной публикации пока нет комментариев.
Будь первым, оставь своё мнение в комментариях!
Информация
Посетители, находящиеся в группе Гости, не могут оставлять комментарии к данной публикации.
Самый популярный релиз недели
Донаты
Мы в соц. сетях / RSS

Лучшие релизы месяца
Лучшие SD недели
Лучшие 720p недели
Лучшие 1080p недели
Лучшие 4K недели
Вы недавно смотрели
Реклама
Последние комментарии
...

rmzshka

12 июля 2024 11:30

...

Rustik99

12 июля 2024 10:11

...

-=DoMiNo=-

11 июля 2024 23:42

...

rmzshka

11 июля 2024 11:28

...

-=DoMiNo=-

10 июля 2024 15:08

Реклама