+11

Девятые врата: Пандемониум / Pandemonium (2023) BDRip 720p от DoMiNo & селезень | P2

Информация о фильме
Название: Девятые врата: Пандемониум
Оригинальное название: Pandemonium
Год выхода: 2023
Жанр: Ужасы
Режиссер: Кваркс
В ролях: Арбен Байрактарай, Юго Дийон, Офелия Колб, Карл Лафоре, Манон Мендивид, Жером Пакватт, Сидвелл Вебер

О фильме:
На месте автокатастрофы Натан и Даниэль встречают девочку Элис. Единственный способ выбраться из ада, где они оказались — это пройти сквозь все его врата и достичь Пандемониума, столицы ада, где кошмарная реальность и ужасы потустороннего мира неразрывно связаны.

Страна: Франция / Transgressive Production
Продолжительность: 01:35:02
Перевод: Профессиональный (двухголосый, закадровый) | ViruseProject
Субтитры: Английские

Файл
Формат: Matroska
Качество: BDRip 720p
Видео: 1280x536 at 23.976 fps, [email protected], ~4531 kbps
Аудио 1: AC3, 2 ch, ~384 kbps - | Русский | Девятые врата: Пандемониум / Pandemonium (2023) BDRip 720p от DoMiNo & селезень | P2
Аудио 2: AC3, 6 ch, ~640 kbps - | Французский |
Формат субтитров: softsub (SRT)

Авторизуйтесь для получения доступа к скачиванию

Нет аккаунта? Регистрация открыта и займёт меньше минуты

Вход Регистрация

x264 [info]: frame I: 735 Avg QP: 13.03 size: 94420
x264 [info]: frame P: 25331 Avg QP: 14.83 size: 44897
x264 [info]: frame B: 110662 Avg QP: 16.55 size: 18284
x264 [info]: consecutive B-frames: 1,2% 1,5% 4,0% 12,4% 15,5% 39,0% 12,0% 5,0% 1,9% 1,0% 1,1% 0,6% 1,0% 1,5% 0,6% 0,2% 1,4%

General
Unique ID: 160470904503468088675756250183369079171 (0×78B9926FCFD52413073780E404B5B983)
Complete name: S: Pandemonium.2023.DVO.BDRip.720p.x264.seleZen.mkv
Format: Matroska
Format version: Version 4
File size: 3.69 GiB
Duration: 1 h 35 min
Overall bit rate: 5 558 kb/s
Frame rate: 23.976 FPS
Movie name: Pandemonium.2023.DVO.BDRip.720p.x264.seleZen
Encoded date: 12.06.2024 14:21:33 UTC
Writing application: mkvmerge v85.0 ('Shame For You') 64-bit
Writing library: libebml v1.4.5 + libmatroska v1.7.1
Cover: Yes
Attachments: cover.jpg / small_cover.jpg

Video
ID: 1
Format: AVC
Format/Info: Advanced Video Codec
Format profile: [email protected]
Format settings: CABAC / 12 Ref Frames
Format settings, CABAC: Yes
Format settings, Reference: 12 frames
Codec ID: V_MPEG4/ISO/AVC
Duration: 1 h 35 min
Bit rate: 4 531 kb/s
Width: 1 280 pixels
Height: 536 pixels
Display aspect ratio: 2.39:1
Frame rate mode: Constant
Frame rate: 23.976 (24000/1001) FPS
Color space: YUV
Chroma subsampling: 4:2:0
Bit depth: 8 bits
Scan type: Progressive
Bits/(Pixel*Frame): 0.275
Stream size: 3.01 GiB (82%)
Title: -=DoMiNo=-
Writing library: x264 core 164 r3191 -DoMiNo
Encoding settings: cabac=1 / ref=12 / deblock=1:-3:-2 / analyse=0×3:0×133 / me=umh / subme=10 / psy=1 / psy_rd=1.10:0.00 / mixed_ref=1 / me_range=32 / chroma_me=1 / trellis=2 / 8×8dct=1 / cqm=0 / deadzone=21,11 / fast_pskip=0 / chroma_qp_offset=-2 / threads=17 / lookahead_threads=4 / sliced_threads=0 / nr=0 / decimate=1 / interlaced=0 / bluray_compat=0 / constrained_intra=0 / bframes=16 / b_pyramid=2 / b_adapt=2 / b_bias=0 / direct=3 / weightb=1 / open_gop=0 / weightp=2 / keyint=250 / keyint_min=23 / scenecut=40 / intra_refresh=0 / rc_lookahead=60 / rc=crf / mbtree=0 / crf=17.3 / qcomp=0.60 / qpmin=0 / qpmax=69 / qpstep=4 / vbv_maxrate=50000 / vbv_bufsize=62500 / crf_max=0.0 / nal_hrd=none / filler=0 / ip_ratio=1.40 / pb_ratio=1.30 / aq=3:0.90
Language: French
Default: Yes
Forced: No
Color range: Limited
Color primaries: BT.709
Transfer characteristics: BT.709
Matrix coefficients: BT.709

Audio #1
ID: 2
Format: AC-3
Format/Info: Audio Coding 3
Commercial name: Dolby Digital
Codec ID: A_AC3
Duration: 1 h 35 min
Bit rate mode: Constant
Bit rate: 384 kb/s
Channel (s): 2 channels
Channel layout: L R
Sampling rate: 48.0 kHz
Frame rate: 31.250 FPS (1536 SPF)
Compression mode: Lossy
Stream size: 261 MiB (7%)
Title: DVO -ViruseProject
Language: Russian
Service kind: Complete Main
Default: Yes
Forced: No
Dialog Normalization: -31 dB
dialnorm_Average: -31 dB
dialnorm_Minimum: -31 dB
dialnorm_Maximum: -31 dB

Audio #2
ID: 3
Format: AC-3
Format/Info: Audio Coding 3
Commercial name: Dolby Digital
Codec ID: A_AC3
Duration: 1 h 35 min
Bit rate mode: Constant
Bit rate: 640 kb/s
Channel (s): 6 channels
Channel layout: L R C LFE Ls Rs
Sampling rate: 48.0 kHz
Frame rate: 31.250 FPS (1536 SPF)
Compression mode: Lossy
Stream size: 435 MiB (12%)
Language: French
Service kind: Complete Main
Default: No
Forced: No
Dialog Normalization: -31 dB
cmixlev: -4.5 dB
surmixlev: -6 dB
dialnorm_Average: -31 dB
dialnorm_Minimum: -31 dB
dialnorm_Maximum: -31 dB

Text
ID: 4
Format: UTF-8
Codec ID: S_TEXT/UTF8
Codec ID/Info: UTF-8 Plain Text
Duration: 1 h 28 min
Bit rate: 39 b/s
Frame rate: 0.180 FPS
Count of elements: 950
Stream size: 25.5 KiB (0%)
Language: English
Default: No
Forced: No

Menu
00:00:00.000: Глава 1
00:10:55.196: Глава 2
00:17:59.870: Глава 3
00:25:17.724: Глава 4
00:32:16.768: Глава 5
00:41:47.046: Глава 6
00:47:43.861: Глава 7
00:52:25.433: Глава 8
01:00:05.351: Глава 9
01:09:37.756: Глава 10
01:18:03.261: Глава 11
01:27:13.770: Глава 12
01:35:03.698: Глава 13

Другие фильмы
У данной публикации пока нет комментариев.
Будь первым, оставь своё мнение в комментариях!
Информация
Посетители, находящиеся в группе Гости, не могут оставлять комментарии к данной публикации.
Самый популярный релиз недели
Донаты
Мы в соц. сетях / RSS

Лучшие релизы месяца
Лучшие SD недели
Лучшие 720p недели
Лучшие 1080p недели
Лучшие 4K недели
Вы недавно смотрели
Реклама
Последние комментарии
...

rmzshka

12 июля 2024 11:30

...

Rustik99

12 июля 2024 10:11

...

-=DoMiNo=-

11 июля 2024 23:42

...

rmzshka

11 июля 2024 11:28

...

-=DoMiNo=-

10 июля 2024 15:08

Реклама