+4

В порядке ли я? / Am I OK? (2022) WEB-DL 720p от селезень | P

Информация о фильме
Название: В порядке ли я?
Оригинальное название: Am I OK?
Год выпуска: 2022
Жанр: драма, мелодрама, комедия
Режиссер: Стефани Аллен / Stephanie Allynne, Тиг Нотаро / Tig Notaro
В ролях: Дакота Джонсон, Соноя Мидзуно, Жермен Фаулер, Кирси Клемонс, Молли Гордон, Уитмер Томас, Кристин Нгуен, Шон Хейс, Тиг Нотаро, Одесса Эзайон, Патрик Макдональд, Маянк Бхаттер, Джесс Нерс, Эмма Пасароу, Виктория Дж. Робертсон ...

В порядке ли я? / Am I OK? (2022) WEB-DL 720p от селезень | P

О фильме:
Лучшие подруги из маленького городка выясняют, что их пути вот-вот разойдутся: одна скоро уедет на повышение в Лондон, а другая так и останется заниматься нелюбимым делом, потому что боится поверить в свой талант. Но грядущая разлука становится поводом оперативно разобраться в себе.

Выпущено: США / Gloria Sanchez Productions, Level Forward, Picturestart, Something Fierce Productions, TeaTime Pictures
Продолжительность: 01:26:32
Перевод: Профессиональный (многоголосый, закадровый) | HDRezka Studio
Субтитры: Русские (Forced, Full), английские

Файл
Формат: Matroska
Качество: WEB-DL 720p | AMZN
Видео: 1280x640 at 23.976 fps, MPEG-4 AVC, ~3644 kbps
Аудио 1: AC3, 2 ch, ~192 kbps - | Русский |
Аудио 2: E-AC-3 JOC, 6 ch, ~640 kbps - | Английский |
Формат субтитров: softsub (SRT)

Авторизуйтесь для получения доступа к скачиванию

Нет аккаунта? Регистрация открыта и займёт меньше минуты

Вход Регистрация

General
Unique ID: 327898650248705149484867614011791704218 (0xF6AEFBA0E522E7E8FE8222DF7C2F009A)
Complete name: S: Am.I.Ok.2022.AMZN.WEB-DL.720p.x264.seleZen.mkv
Format: Matroska
Format version: Version 4
File size: 2.71 GiB
Duration: 1 h 26 min
Overall bit rate: 4 479 kb/s
Frame rate: 23.976 FPS
Movie name: Am.I.Ok.2022.AMZN.WEB-DL.720p.x264.seleZen
Encoded date: 11.06.2024 11:06:58 UTC
Writing application: mkvmerge v85.0 ('Shame For You') 64-bit
Writing library: libebml v1.4.5 + libmatroska v1.7.1
Cover: Yes
Attachments: cover.jpg / small_cover.jpg

Video
ID: 1
Format: AVC
Format/Info: Advanced Video Codec
Format profile: [email protected]
Format settings: CABAC / 4 Ref Frames
Format settings, CABAC: Yes
Format settings, Reference: 4 frames
Codec ID: V_MPEG4/ISO/AVC
Duration: 1 h 26 min
Bit rate mode: Constant
Bit rate: 3 644 kb/s
Nominal bit rate: 4 000 kb/s
Width: 1 280 pixels
Height: 640 pixels
Display aspect ratio: 2.000
Frame rate mode: Constant
Frame rate: 23.976 (24000/1001) FPS
Color space: YUV
Chroma subsampling: 4:2:0
Bit depth: 8 bits
Scan type: Progressive
Bits/(Pixel*Frame): 0.186
Stream size: 2.20 GiB (81%)
Title: -=DoMiNo=-
Language: English (US)
Default: Yes
Forced: No
Color range: Limited
Color primaries: BT.709
Transfer characteristics: BT.709
Matrix coefficients: BT.709

Audio #1
ID: 2
Format: AC-3
Format/Info: Audio Coding 3
Commercial name: Dolby Digital
Codec ID: A_AC3
Duration: 1 h 26 min
Bit rate mode: Constant
Bit rate: 192 kb/s
Channel (s): 2 channels
Channel layout: L R
Sampling rate: 48.0 kHz
Frame rate: 31.250 FPS (1536 SPF)
Compression mode: Lossy
Stream size: 119 MiB (4%)
Title: MVO -HDRezka Studio
Language: Russian
Service kind: Complete Main
Default: Yes
Forced: No
Dialog Normalization: -31 dB
dialnorm_Average: -31 dB
dialnorm_Minimum: -31 dB
dialnorm_Maximum: -31 dB

Audio #2
ID: 3
Format: E-AC-3 JOC
Format/Info: Enhanced AC-3 with Joint Object Coding
Commercial name: Dolby Digital Plus with Dolby Atmos
Codec ID: A_EAC3
Duration: 1 h 26 min
Bit rate mode: Constant
Bit rate: 640 kb/s
Channel (s): 6 channels
Channel layout: L R C LFE Ls Rs
Sampling rate: 48.0 kHz
Frame rate: 31.250 FPS (1536 SPF)
Compression mode: Lossy
Stream size: 396 MiB (14%)
Language: English (US)
Service kind: Complete Main
Default: No
Forced: No
Complexity index: 16
Number of dynamic objects: 15
Bed channel count: 1 channel
Bed channel configuration: LFE
Dialog Normalization: -27 dB
compr: -0.28 dB
dmixmod: Lo/Ro
ltrtcmixlev: -3.0 dB
ltrtsurmixlev: -3.0 dB
lorocmixlev: -3.0 dB
lorosurmixlev: -3.0 dB
dialnorm_Average: -27 dB
dialnorm_Minimum: -27 dB
dialnorm_Maximum: -27 dB

Text #1
ID: 4
Format: UTF-8
Codec ID: S_TEXT/UTF8
Codec ID/Info: UTF-8 Plain Text
Duration: 1 h 5 min
Bit rate: 4 b/s
Frame rate: 0.013 FPS
Count of elements: 50
Stream size: 2.06 KiB (0%)
Title: Forced
Language: Russian
Default: No
Forced: No

Text #2
ID: 5
Format: UTF-8
Codec ID: S_TEXT/UTF8
Codec ID/Info: UTF-8 Plain Text
Duration: 1 h 20 min
Bit rate: 114 b/s
Frame rate: 0.335 FPS
Count of elements: 1627
Stream size: 67.9 KiB (0%)
Title: Full
Language: Russian
Default: No
Forced: No

Text #3
ID: 6
Format: UTF-8
Codec ID: S_TEXT/UTF8
Codec ID/Info: UTF-8 Plain Text
Duration: 1 h 24 min
Bit rate: 80 b/s
Frame rate: 0.335 FPS
Count of elements: 1691
Stream size: 49.6 KiB (0%)
Language: English (US)
Default: No
Forced: No

Text #4
ID: 7
Format: UTF-8
Codec ID: S_TEXT/UTF8
Codec ID/Info: UTF-8 Plain Text
Duration: 1 h 24 min
Bit rate: 88 b/s
Frame rate: 0.361 FPS
Count of elements: 1832
Stream size: 54.9 KiB (0%)
Title: SDH
Language: English (US)
Default: No
Forced: No

Menu
01:21:56.745: en: Credits

Другие фильмы
У данной публикации пока нет комментариев.
Будь первым, оставь своё мнение в комментариях!
Информация
Посетители, находящиеся в группе Гости, не могут оставлять комментарии к данной публикации.
Самый популярный релиз недели
Донаты
Мы в соц. сетях / RSS

Лучшие релизы месяца
Лучшие SD недели
Лучшие 720p недели
Лучшие 1080p недели
Лучшие 4K недели
Вы недавно смотрели
Реклама
Последние комментарии
...

Bonzo

14 июня 2024 14:52

...

rmzshka

13 июня 2024 17:48

...

rmzshka

13 июня 2024 12:24

...

LisNick

13 июня 2024 08:45

...

SkySpirit

8 июня 2024 19:54

Реклама