+4

Уиджи. Потустороннее измерение / The 100 Candles Game: The Last Possession (2023) WEB-DLRip 720p от DoMiNo & селезень | P2

Информация о фильме
Название: Уиджи. Потустороннее измерение
Оригинальное название: The 100 Candles Game: The Last Possession
Год выхода: 2023
Жанр: Ужасы
Режиссер: Карлос Гоития, Гильермо Локхарт, Андрес Борги и др.
В ролях: Начо Франкавилья, Хосефина Инес Фаринья, Жустина Цебаллос, Чжунь Ли, Пачи Лукас, Майте Сольсона, Агустин Ольчезе, Яго Ильескас, Магуи Брави, Бретт ДельБуоно

О фильме:
Команда блогеров-инфлюэнсеров решает провести ритуал в особняке «черной графини». Поклонница всего сверхъестественного, она бесследно исчезла после того, как ей предложили сыграть в игру, которая должна была провести ее в другое измерение. Вызывая дух графини, блогеры впускают в мир потусторонние силы. Выживет тот, кто сможет вернуть демонов обратно.

Страна: Новая Зеландия, Аргентина
Продолжительность: 01:12:50
Перевод: Профессиональный (двухголосый, закадровый) | ViruseProject 18 +

Файл
Формат: Matroska
Качество: WEB-DLRip 720p
Видео: 1280x640 at 25.000 fps, [email protected], ~1649 kbps
Аудио 1: AC3, 2 ch, ~192 kbps - | Русский | Уиджи. Потустороннее измерение / The 100 Candles Game: The Last Possession (2023) WEB-DLRip 720p от DoMiNo & селезень | P2
Аудио 2: AAC, 2 ch, ~192 kbps - | Английский |
Субтитры: нет

Авторизуйтесь для получения доступа к скачиванию

Нет аккаунта? Регистрация открыта и займёт меньше минуты

Вход Регистрация

*** Дебандинг, зерно.

x264 [info]: frame I: 630 Avg QP: 15.32 size: 69519
x264 [info]: frame P: 21024 Avg QP: 18.08 size: 19641
x264 [info]: frame B: 87599 Avg QP: 20.52 size: 5069

General
Unique ID: 224238994849002366756832578451627080067 (0xA8B2DC076620FEC95F8861D08EF07983)
Complete name: I: The.100.Candles.Game.The.Last.Possession.2023.WEB-DLRip.720p.x264.seleZen.mkv
Format: Matroska
Format version: Version 4
File size: 1.04 GiB
Duration: 1 h 12 min
Overall bit rate: 2 035 kb/s
Frame rate: 25.000 FPS
Movie name: The.100.Candles.Game.The.Last.Possession.2023.WEB-DLRip.720p.x264.seleZen
Encoded date: 11.06.2024 07:27:02 UTC
Writing application: mkvmerge v85.0 ('Shame For You') 64-bit
Writing library: libebml v1.4.5 + libmatroska v1.7.1
Cover: Yes
Attachments: cover.jpg / small_cover.jpg

Video
ID: 1
Format: AVC
Format/Info: Advanced Video Codec
Format profile: [email protected]
Format settings: CABAC / 5 Ref Frames
Format settings, CABAC: Yes
Format settings, Reference: 5 frames
Codec ID: V_MPEG4/ISO/AVC
Duration: 1 h 12 min
Bit rate: 1 649 kb/s
Width: 1 280 pixels
Height: 640 pixels
Display aspect ratio: 2.000
Frame rate mode: Constant
Frame rate: 25.000 FPS
Color space: YUV
Chroma subsampling: 4:2:0
Bit depth: 8 bits
Scan type: Progressive
Bits/(Pixel*Frame): 0.081
Stream size: 859 MiB (81%)
Title: -=DoMiNo=-
Writing library: x264 core 164 r3191 -DoMiNo
Encoding settings: cabac=1 / ref=5 / deblock=1:-2:-1 / analyse=0×3:0×133 / me=umh / subme=10 / psy=1 / psy_rd=1.00:0.15 / mixed_ref=1 / me_range=32 / chroma_me=1 / trellis=2 / 8×8dct=1 / cqm=0 / deadzone=21,11 / fast_pskip=0 / chroma_qp_offset=-3 / threads=20 / lookahead_threads=5 / sliced_threads=0 / nr=0 / decimate=1 / interlaced=0 / bluray_compat=0 / constrained_intra=0 / bframes=12 / b_pyramid=2 / b_adapt=2 / b_bias=0 / direct=3 / weightb=1 / open_gop=0 / weightp=2 / keyint=250 / keyint_min=25 / scenecut=40 / intra_refresh=0 / rc_lookahead=60 / rc=crf / mbtree=0 / crf=19.5 / qcomp=0.60 / qpmin=0 / qpmax=69 / qpstep=4 / vbv_maxrate=50000 / vbv_bufsize=62500 / crf_max=0.0 / nal_hrd=none / filler=0 / ip_ratio=1.40 / pb_ratio=1.30 / aq=1:0.90
Language: English
Default: Yes
Forced: No
Color range: Limited
Color primaries: BT.709
Transfer characteristics: BT.709
Matrix coefficients: BT.709

Audio #1
ID: 2
Format: AC-3
Format/Info: Audio Coding 3
Commercial name: Dolby Digital
Codec ID: A_AC3
Duration: 1 h 12 min
Bit rate mode: Constant
Bit rate: 192 kb/s
Channel (s): 2 channels
Channel layout: L R
Sampling rate: 48.0 kHz
Frame rate: 31.250 FPS (1536 SPF)
Compression mode: Lossy
Stream size: 100 MiB (9%)
Title: ViruseProject
Language: Russian
Service kind: Complete Main
Default: Yes
Forced: No
Dialog Normalization: -31 dB
compr: -0.28 dB
mixlevel: 284 dB
roomtyp: 3
ltrtcmixlev: -3.0 dB
ltrtsurmixlev: -3.0 dB
lorocmixlev: -3.0 dB
lorosurmixlev: -3.0 dB
dialnorm_Average: -31 dB
dialnorm_Minimum: -31 dB
dialnorm_Maximum: -31 dB

Audio #2
ID: 3
Format: AAC LC
Format/Info: Advanced Audio Codec Low Complexity
Codec ID: A_AAC-2
Duration: 1 h 12 min
Bit rate: 192 kb/s
Channel (s): 2 channels
Channel layout: L R
Sampling rate: 48.0 kHz
Frame rate: 46.875 FPS (1024 SPF)
Compression mode: Lossy
Stream size: 99.9 MiB (9%)
Language: English
Default: No
Forced: No

Menu
00:00:00.000: en: Chapter 01
00:05:50.000: en: Chapter 02
00:11:40.000: en: Chapter 03
00:17:30.000: en: Chapter 04
00:23:20.000: en: Chapter 05
00:29:10.000: en: Chapter 06
00:35:00.000: en: Chapter 07
00:40:50.000: en: Chapter 08
00:46:40.000: en: Chapter 09
00:52:30.000: en: Chapter 10
00:58:20.000: en: Chapter 11
01:04:10.000: en: Chapter 12
01:10:00.000: en: Chapter 13

Другие фильмы
У данной публикации пока нет комментариев.
Будь первым, оставь своё мнение в комментариях!
Информация
Посетители, находящиеся в группе Гости, не могут оставлять комментарии к данной публикации.
Самый популярный релиз недели
Донаты
Мы в соц. сетях / RSS

Лучшие релизы месяца
Лучшие SD недели
Лучшие 720p недели
Лучшие 1080p недели
Лучшие 4K недели
Вы недавно смотрели
Реклама
Последние комментарии
...

Bonzo

14 июня 2024 14:52

...

rmzshka

13 июня 2024 17:48

...

rmzshka

13 июня 2024 12:24

...

LisNick

13 июня 2024 08:45

...

SkySpirit

8 июня 2024 19:54

Реклама