+5

Земля теней / Страна теней / Shadow Land (2024) WEB-DL 720p от селезень | P

Информация о фильме
Название: Земля теней / Страна теней
Оригинальное название: Shadow Land
Год выхода: 2024
Жанр: триллер
Режиссер: Джеймс Бэмфорд
В ролях: Рона Митра, Джон Войт, Мартон Чокаш, Филип Уинчестер, Шон Магвайр

О фильме:
Преследуемый непрекращающимися кошмарами, предвещающими его безвременную кончину, бывший президент Роберт Уэйнрайт вызывает в свою резиденцию на севере штата своего прошлого психиатра, который обнаруживает, что угроза может быть более реальной, чем кажется.

Страна: США
Студия: Government Island, SP Media Group
Продолжительность: 01:28:58
Перевод: Профессиональный (многоголосый закадровый) | TVShows
Субтитры: Английские (Full, SDH)

Файл
Формат: Matroska
Качество: WEB-DL 720p | AMZN
Видео: 1248x520 at 23.976 fps, MPEG-4 AVC, ~2408 kbps
Аудио 1: AC3, 6 ch, ~384 kbps - | Русский | Земля теней / Страна теней / Shadow Land (2024) WEB-DL 720p от селезень | P
Аудио 2: E-AC3, 6 ch, ~640 kbps - | Английский |
Формат субтитров: softsub (SRT)

Авторизуйтесь для получения доступа к скачиванию

Нет аккаунта? Регистрация открыта и займёт меньше минуты

Вход Регистрация

General
Unique ID: 282754769319851060243019403007142849684 (0xD4B896747FDC6FB7AD24236840BEEC94)
Complete name: S: Shadow.Land.2024.AMZN.WEB-DL.720p.x264.seleZen.mkv
Format: Matroska
Format version: Version 4
File size: 2.13 GiB
Duration: 1 h 28 min
Overall bit rate: 3 434 kb/s
Frame rate: 23.976 FPS
Movie name: Shadow.Land.2024.AMZN.WEB-DL.720p.x264.seleZen
Encoded date: 10.06.2024 09:35:21 UTC
Writing application: mkvmerge v85.0 ('Shame For You') 64-bit
Writing library: libebml v1.4.5 + libmatroska v1.7.1
Cover: Yes
Attachments: cover.jpg / small_cover.jpg

Video
ID: 1
Format: AVC
Format/Info: Advanced Video Codec
Format profile: [email protected]
Format settings: CABAC / 4 Ref Frames
Format settings, CABAC: Yes
Format settings, Reference: 4 frames
Codec ID: V_MPEG4/ISO/AVC
Duration: 1 h 28 min
Bit rate mode: Constant
Bit rate: 2 408 kb/s
Nominal bit rate: 4 000 kb/s
Width: 1 248 pixels
Height: 520 pixels
Display aspect ratio: 2.40:1
Frame rate mode: Constant
Frame rate: 23.976 (24000/1001) FPS
Color space: YUV
Chroma subsampling: 4:2:0
Bit depth: 8 bits
Scan type: Progressive
Bits/(Pixel*Frame): 0.155
Stream size: 1.50 GiB (70%)
Title: -=DoMiNo=-
Language: English
Default: Yes
Forced: No
Color range: Limited
Color primaries: BT.709
Transfer characteristics: BT.709
Matrix coefficients: BT.709

Audio #1
ID: 2
Format: AC-3
Format/Info: Audio Coding 3
Commercial name: Dolby Digital
Codec ID: A_AC3
Duration: 1 h 28 min
Bit rate mode: Constant
Bit rate: 384 kb/s
Channel (s): 6 channels
Channel layout: L R C LFE Ls Rs
Sampling rate: 48.0 kHz
Frame rate: 31.250 FPS (1536 SPF)
Compression mode: Lossy
Stream size: 244 MiB (11%)
Title: MVO -TVShows
Language: Russian
Service kind: Complete Main
Default: Yes
Forced: No
Dialog Normalization: -27 dB
compr: -0.28 dB
dynrng: -1.48 dB
cmixlev: -3.0 dB
surmixlev: -3 dB
mixlevel: 285 dB
roomtyp: Small
dialnorm_Average: -27 dB
dialnorm_Minimum: -27 dB
dialnorm_Maximum: -27 dB

Audio #2
ID: 3
Format: E-AC-3
Format/Info: Enhanced AC-3
Commercial name: Dolby Digital Plus
Codec ID: A_EAC3
Duration: 1 h 28 min
Bit rate mode: Constant
Bit rate: 640 kb/s
Channel (s): 6 channels
Channel layout: L R C LFE Ls Rs
Sampling rate: 48.0 kHz
Frame rate: 31.250 FPS (1536 SPF)
Compression mode: Lossy
Stream size: 407 MiB (19%)
Language: English
Service kind: Complete Main
Default: No
Forced: No
Dialog Normalization: -31 dB
compr: -0.28 dB
dialnorm_Average: -31 dB
dialnorm_Minimum: -31 dB
dialnorm_Maximum: -31 dB

Text #1
ID: 4
Format: UTF-8
Codec ID: S_TEXT/UTF8
Codec ID/Info: UTF-8 Plain Text
Duration: 1 h 20 min
Bit rate: 66 b/s
Frame rate: 0.255 FPS
Count of elements: 1224
Stream size: 39.3 KiB (0%)
Language: English
Default: No
Forced: No

Text #2
ID: 5
Format: UTF-8
Codec ID: S_TEXT/UTF8
Codec ID/Info: UTF-8 Plain Text
Duration: 1 h 28 min
Bit rate: 67 b/s
Frame rate: 0.271 FPS
Count of elements: 1437
Stream size: 43.8 KiB (0%)
Title: SDH
Language: English
Default: No
Forced: No

Menu
00:00:00.000: en: Scene 01
01:23:02.125: en: End Credits

Другие фильмы
У данной публикации пока нет комментариев.
Будь первым, оставь своё мнение в комментариях!
Информация
Посетители, находящиеся в группе Гости, не могут оставлять комментарии к данной публикации.
Самый популярный релиз недели
Донаты
Мы в соц. сетях / RSS

Лучшие релизы месяца
Лучшие SD недели
Лучшие 720p недели
Лучшие 1080p недели
Лучшие 4K недели
Вы недавно смотрели
Реклама
Последние комментарии
...

Bonzo

14 июня 2024 14:52

...

rmzshka

13 июня 2024 17:48

...

rmzshka

13 июня 2024 12:24

...

LisNick

13 июня 2024 08:45

...

SkySpirit

8 июня 2024 19:54

Реклама