+12

Выжить в Калахари / Добыча / Kalahari / Prey (2024) WEB-DLRip 720p от DoMiNo & селезень | D

Информация о фильме
Название: Выжить в Калахари / Добыча
Оригинальное название: Kalahari / Prey
Год выхода: 2024
Жанр: боевик, триллер
Режиссер: Мукунда Майкл Дьюил
В ролях: Райан Филипп, Эмиль Хирш, Мена Сувари, Дилан Флешнер, Джереми Тарди, Микаэла Саснер, Тристан Томпсон, Мохамед Хакимшади, Годвин Обенг, Альфа Микнас

О фильме:
Молодая пара Эндрю и Сью работали в христианской миссии на юге Африки. Но однажды им сообщают о необходимости немедленно покинуть станцию, поскольку скоро сюда придут вооружённые боевики. А иностранные граждане – лакомый кусочек для бандитов. Эндрю и Сью отправляются на отдалённый аэропорт, где нагловатый пилот Грюн за кругленькую сумму вывозит на небольшом самолёте людей в безопасное место. Из-за его алчности воздушное судно оказывается переполнено, и полёт оканчивается жесткой посадкой в заповеднике. Чтобы выжить, спасшимся пассажирам придётся дать бой суровой природе и опасным хищникам, которые совсем не против ими отобедать.

Выпущено: США / Green Light Pictures, The Barnum Picture Company, Vertical Entertainment
Продолжительность: 01:26:00
Перевод: Дублированный | Мосфильм-Мастер
Субтитры: Русские (Full)

Файл
Формат: Matroska
Качество: WEB-DLRip 720p
Видео: 1280x480 at 24.000 fps, [email protected], ~1878 kbps
Аудио: AC3, 6 ch, ~384 kbps - | Русский | Выжить в Калахари / Добыча / Kalahari / Prey (2024) WEB-DLRip 720p от DoMiNo & селезень | D
Формат субтитров: softsub (SRT)

Авторизуйтесь для получения доступа к скачиванию

Нет аккаунта? Регистрация открыта и займёт меньше минуты

Вход Регистрация

General
Unique ID: 277528520824536900484731727119491329033 (0xD0CA0C8298C0216B2D43EF91315CEC09)
Complete name: I: Kalahari.2024.DUB.WEB-DLRip.720p.x264.seleZen.mkv
Format: Matroska
Format version: Version 4
File size: 1.36 GiB
Duration: 1 h 26 min
Overall bit rate: 2 265 kb/s
Frame rate: 24.000 FPS
Movie name: Kalahari.2024.DUB.WEB-DLRip.720p.x264.seleZen
Encoded date: 23.05.2024 11:20:50 UTC
Writing application: mkvmerge v84.0 ('Sleeper') 64-bit
Writing library: libebml v1.4.5 + libmatroska v1.7.1
Cover: Yes
Attachments: cover.jpg / small_cover.jpg

Video
ID: 1
Format: AVC
Format/Info: Advanced Video Codec
Format profile: [email protected]
Format settings: CABAC / 5 Ref Frames
Format settings, CABAC: Yes
Format settings, Reference: 5 frames
Codec ID: V_MPEG4/ISO/AVC
Duration: 1 h 26 min
Bit rate: 1 878 kb/s
Width: 1 280 pixels
Height: 480 pixels
Display aspect ratio: 2.667
Frame rate mode: Constant
Frame rate: 24.000 FPS
Color space: YUV
Chroma subsampling: 4:2:0
Bit depth: 8 bits
Scan type: Progressive
Bits/(Pixel*Frame): 0.127
Stream size: 1.13 GiB (83%)
Title: -=DoMiNo=-
Writing library: x264 core 164 r3191 -DoMiNo
Encoding settings: cabac=1 / ref=5 / deblock=1:-1:-1 / analyse=0×3:0×133 / me=umh / subme=10 / psy=1 / psy_rd=1.00:0.00 / mixed_ref=1 / me_range=32 / chroma_me=1 / trellis=2 / 8×8dct=1 / cqm=0 / deadzone=21,11 / fast_pskip=0 / chroma_qp_offset=-2 / threads=15 / lookahead_threads=3 / sliced_threads=0 / nr=0 / decimate=1 / interlaced=0 / bluray_compat=0 / constrained_intra=0 / bframes=10 / b_pyramid=2 / b_adapt=2 / b_bias=0 / direct=3 / weightb=1 / open_gop=0 / weightp=2 / keyint=240 / keyint_min=24 / scenecut=40 / intra_refresh=0 / rc_lookahead=60 / rc=crf / mbtree=0 / crf=17.5 / qcomp=0.60 / qpmin=0 / qpmax=69 / qpstep=4 / vbv_maxrate=50000 / vbv_bufsize=62500 / crf_max=0.0 / nal_hrd=none / filler=0 / ip_ratio=1.40 / pb_ratio=1.30 / aq=1:0.90
Language: English
Default: Yes
Forced: No
Color range: Limited
Color primaries: BT.709
Transfer characteristics: BT.709
Matrix coefficients: BT.709

Audio
ID: 2
Format: AC-3
Format/Info: Audio Coding 3
Commercial name: Dolby Digital
Codec ID: A_AC3
Duration: 1 h 26 min
Bit rate mode: Constant
Bit rate: 384 kb/s
Channel (s): 6 channels
Channel layout: L R C LFE Ls Rs
Sampling rate: 48.0 kHz
Frame rate: 31.250 FPS (1536 SPF)
Compression mode: Lossy
Stream size: 236 MiB (17%)
Title: DUB -Мосфильм-Мастер
Language: Russian
Service kind: Complete Main
Default: Yes
Forced: No
Dialog Normalization: -27 dB
compr: -0.28 dB
cmixlev: -3.0 dB
surmixlev: -3 dB
mixlevel: 281 dB
roomtyp: 3
ltrtcmixlev: -3.0 dB
ltrtsurmixlev: -3.0 dB
lorocmixlev: -3.0 dB
lorosurmixlev: -4.5 dB
dialnorm_Average: -27 dB
dialnorm_Minimum: -27 dB
dialnorm_Maximum: -27 dB

Text
ID: 3
Format: UTF-8
Codec ID: S_TEXT/UTF8
Codec ID/Info: UTF-8 Plain Text
Duration: 1 h 22 min
Bit rate: 37 b/s
Frame rate: 0.131 FPS
Count of elements: 647
Stream size: 22.6 KiB (0%)
Title: Full
Language: Russian
Default: No
Forced: No

Menu
00:00:00.000: en: Chapter 01
00:05:50.000: en: Chapter 02
00:11:40.000: en: Chapter 03
00:17:30.000: en: Chapter 04
00:23:20.000: en: Chapter 05
00:29:10.000: en: Chapter 06
00:35:00.000: en: Chapter 07
00:40:50.000: en: Chapter 08
00:46:40.000: en: Chapter 09
00:52:30.000: en: Chapter 10
00:58:20.000: en: Chapter 11
01:04:10.000: en: Chapter 12
01:10:00.000: en: Chapter 13
01:15:50.000: en: Chapter 14
01:21:40.000: en: Chapter 15

Другие фильмы
У данной публикации пока нет комментариев.
Будь первым, оставь своё мнение в комментариях!
Информация
Посетители, находящиеся в группе Гости, не могут оставлять комментарии к данной публикации.
Самый популярный релиз недели
Донаты
Мы в соц. сетях / RSS

Лучшие релизы месяца
Лучшие SD недели
Лучшие 720p недели
Лучшие 1080p недели
Лучшие 4K недели
Вы недавно смотрели
Реклама
Последние комментарии
...

Bonzo

14 июня 2024 14:52

...

rmzshka

13 июня 2024 17:48

...

rmzshka

13 июня 2024 12:24

...

LisNick

13 июня 2024 08:45

...

SkySpirit

8 июня 2024 19:54

Реклама