+13

Последняя остановка в округе Юма / The Last Stop in Yuma County (2023) WEB-DLRip-AVC от DoMiNo | P

Информация о фильме
Название: Последняя остановка в округе Юма
Оригинальное название: The Last Stop in Yuma County
Год выпуска: 2023
Выпущено: США / Carte Blanche, Local Boogeyman Productions, Random Lane Productions
Жанр: триллер, криминал
Режиссер: Франсис Галуппи / Francis Galluppi
В ролях: Джим Каммингс, Джоселин Донахью, Ричард Брэйк, Николас Логан, Фэйзон Лав, Майкл Эбботт мл., Джин Джонс, Робин Бартлетт, Сьерра Маккормик, Коннор Паоло, Раян Мэссон, Александра Эссоу, Сэм Хантингтон, Джон Праудстар, Барбара Крэмптон

О фильме:
Аризона, 1980-е. Коммивояжер вынужденно останавливается в тихом городке, куда приезжают бандиты, находящиеся в бегах после недавнего ограбления банка.

Продолжительность: 01:30:29
Перевод: Профессиональный (многоголосый, закадровый) | TVShows
Субтитры: Английские

Файл
Формат: Matroska
Качество: WEB-DLRip-AVC
Видео: 1024x426 at 23.976 fps, [email protected], ~1722 kbps
Аудио: AC3, 6 ch, ~384 kbps - | Русский | Последняя остановка в округе Юма / The Last Stop in Yuma County (2023) WEB-DLRip-AVC от DoMiNo | P
Формат субтитров: softsub (SRT)

Авторизуйтесь для получения доступа к скачиванию

Нет аккаунта? Регистрация открыта и займёт меньше минуты

Вход Регистрация

General
Unique ID: 57257308743908829532909277066994347366 (0×2B135B467FF4554D33F5E6D1F08B6D66)
Complete name: I: The.Last.Stop.in.Yuma.County.2023.MVO.WEB-DLRip.x264.seleZen.mkv
Format: Matroska
Format version: Version 4
File size: 1.33 GiB
Duration: 1 h 30 min
Overall bit rate: 2 108 kb/s
Frame rate: 23.976 FPS
Movie name: The.Last.Stop.in.Yuma.County.2023.MVO.WEB-DLRip.x264.seleZen
Encoded date: 22.05.2024 20:19:58 UTC
Writing application: mkvmerge v84.0 ('Sleeper') 64-bit
Writing library: libebml v1.4.5 + libmatroska v1.7.1
Cover: Yes
Attachments: cover.jpg / small_cover.jpg

Video
ID: 1
Format: AVC
Format/Info: Advanced Video Codec
Format profile: [email protected]
Format settings: CABAC / 10 Ref Frames
Format settings, CABAC: Yes
Format settings, Reference: 10 frames
Codec ID: V_MPEG4/ISO/AVC
Duration: 1 h 30 min
Bit rate: 1 722 kb/s
Width: 1 024 pixels
Height: 426 pixels
Display aspect ratio: 2.40:1
Frame rate mode: Constant
Frame rate: 23.976 (24000/1001) FPS
Color space: YUV
Chroma subsampling: 4:2:0
Bit depth: 8 bits
Scan type: Progressive
Bits/(Pixel*Frame): 0.165
Stream size: 1.09 GiB (82%)
Title: -=DoMiNo=-
Writing library: x264 core 164 r3191 4613ac3
Encoding settings: cabac=1 / ref=10 / deblock=1:-1:-1 / analyse=0×3:0×133 / me=umh / subme=10 / psy=1 / psy_rd=1.02:0.05 / mixed_ref=1 / me_range=32 / chroma_me=1 / trellis=2 / 8×8dct=1 / cqm=0 / deadzone=21,11 / fast_pskip=0 / chroma_qp_offset=-3 / threads=13 / lookahead_threads=3 / sliced_threads=0 / nr=0 / decimate=1 / interlaced=0 / bluray_compat=0 / constrained_intra=0 / bframes=12 / b_pyramid=2 / b_adapt=2 / b_bias=0 / direct=3 / weightb=1 / open_gop=0 / weightp=2 / keyint=240 / keyint_min=23 / scenecut=40 / intra_refresh=0 / rc_lookahead=60 / rc=crf / mbtree=0 / crf=18.0 / qcomp=0.60 / qpmin=0 / qpmax=69 / qpstep=4 / vbv_maxrate=50000 / vbv_bufsize=62500 / crf_max=0.0 / nal_hrd=none / filler=0 / ip_ratio=1.40 / pb_ratio=1.30 / aq=3:0.90
Language: English
Default: Yes
Forced: No
Color range: Limited
Color primaries: BT.709
Transfer characteristics: BT.709
Matrix coefficients: BT.709

Audio
ID: 2
Format: AC-3
Format/Info: Audio Coding 3
Commercial name: Dolby Digital
Codec ID: A_AC3
Duration: 1 h 30 min
Bit rate mode: Constant
Bit rate: 384 kb/s
Channel (s): 6 channels
Channel layout: L R C LFE Ls Rs
Sampling rate: 48.0 kHz
Frame rate: 31.250 FPS (1536 SPF)
Compression mode: Lossy
Stream size: 249 MiB (18%)
Title: MVO -TVShows
Language: Russian
Service kind: Complete Main
Default: Yes
Forced: No
Dialog Normalization: -31 dB
cmixlev: -4.5 dB
surmixlev: -6 dB
dialnorm_Average: -31 dB
dialnorm_Minimum: -31 dB
dialnorm_Maximum: -31 dB

Text #1
ID: 3
Format: UTF-8
Codec ID: S_TEXT/UTF8
Codec ID/Info: UTF-8 Plain Text
Duration: 1 h 27 min
Bit rate: 44 b/s
Frame rate: 0.183 FPS
Count of elements: 956
Stream size: 28.7 KiB (0%)
Language: English
Default: No
Forced: No

Text #2
ID: 4
Format: UTF-8
Codec ID: S_TEXT/UTF8
Codec ID/Info: UTF-8 Plain Text
Duration: 1 h 28 min
Bit rate: 52 b/s
Frame rate: 0.219 FPS
Count of elements: 1159
Stream size: 33.9 KiB (0%)
Title: SDH
Language: English
Default: No
Forced: No

Menu
00:00:00.000: en: Scene 01
01:30:24.000: en: End Credits

Другие фильмы
У данной публикации пока нет комментариев.
Будь первым, оставь своё мнение в комментариях!
Информация
Посетители, находящиеся в группе Гости, не могут оставлять комментарии к данной публикации.
Самый популярный релиз недели
Донаты
Мы в соц. сетях / RSS

Лучшие релизы месяца
Лучшие SD недели
Лучшие 720p недели
Лучшие 1080p недели
Лучшие 4K недели
Вы недавно смотрели
Реклама
Последние комментарии
...

Bonzo

14 июня 2024 14:52

...

rmzshka

13 июня 2024 17:48

...

rmzshka

13 июня 2024 12:24

...

LisNick

13 июня 2024 08:45

...

SkySpirit

8 июня 2024 19:54

Реклама