+5

Артур, ты король / Arthur the King (2024) BDRip-AVC от DoMiNo & селезень | D

Информация о фильме
Название: Артур, ты король
Оригинальное название: Arthur the King
Год выпуска: 2024
Жанр: драма, приключения
Режиссер: Саймон Селлан Джонс / Simon Cellan Jones
В ролях: Марк Уолберг, Симу Лю, Джульет Райлэнс, Натали Эммануэль, Али Сулиман, Беар Гриллс, Пол Гилфойл, Роб Коллинз, Карлтон Бёрд, Сиси Валентина

О фильме:
Это было последнее соревнование капитана по приключенческим гонкам Майкла Линднорда, он был полон решимости ничему не позволить встать у него на пути. Собрав первоклассную команду, он не мог и представить, что в 700-километровом забеге у них появится неожиданный попутчик - пес по кличке Артур, встреча с которым изменит не только исход гонки, но и их жизнь.

Выпущено: США / Lionsgate, Tooley Productions
Продолжительность: 01:47:03
Перевод: Дублированный | Мосфильм-Мастер
Субтитры: Русские (Forced, full (by Enigma)), английские

Файл
Формат: Matroska
Качество: BDRip-AVC | Исх.Arthur.the.King.2024.1080p.Blu-ray.Remux.AVC.TrueHD.Atmos.7.1-CiNEPHiLES
Видео: 720x300 at 23.976 fps, [email protected], ~878 kbps
Аудио: AAC, 2 ch, ~96 kbps - | Русский | Артур, ты король / Arthur the King (2024) BDRip-AVC от DoMiNo & селезень | D
Формат субтитров: softsub (SRT)

Авторизуйтесь для получения доступа к скачиванию

Нет аккаунта? Регистрация открыта и займёт меньше минуты

Вход Регистрация

General
Unique ID: 274328022599095457417933119250255206030 (0xCE61A7C3C29C997F9C575CA4D10E568E)
Complete name: B: Arthur.the.King.2024.DUB.BDRip.x264.seleZen.mkv
Format: Matroska
Format version: Version 4
File size: 745 MiB
Duration: 1 h 47 min
Overall bit rate: 972 kb/s
Frame rate: 23.976 FPS
Movie name: Arthur.the.King.2024.DUB.BDRip.x264.seleZen
Encoded date: 22.05.2024 13:01:23 UTC
Writing application: mkvmerge v84.0 ('Sleeper') 64-bit
Writing library: libebml v1.4.5 + libmatroska v1.7.1
Cover: Yes
Attachments: cover.jpg / small_cover.jpg

Video
ID: 1
Format: AVC
Format/Info: Advanced Video Codec
Format profile: [email protected]
Format settings: CABAC / 14 Ref Frames
Format settings, CABAC: Yes
Format settings, Reference: 14 frames
Codec ID: V_MPEG4/ISO/AVC
Duration: 1 h 47 min
Bit rate: 878 kb/s
Width: 720 pixels
Height: 300 pixels
Display aspect ratio: 2.40:1
Frame rate mode: Constant
Frame rate: 23.976 (24000/1001) FPS
Color space: YUV
Chroma subsampling: 4:2:0
Bit depth: 8 bits
Scan type: Progressive
Bits/(Pixel*Frame): 0.170
Stream size: 670 MiB (90%)
Title: -=DoMiNo=-
Writing library: x264 core 164 r3191 -DoMiNo
Encoding settings: cabac=1 / ref=14 / deblock=1:-2:-1 / analyse=0×3:0×133 / me=umh / subme=10 / psy=1 / psy_rd=1.05:0.03 / mixed_ref=1 / me_range=32 / chroma_me=1 / trellis=2 / 8×8dct=1 / cqm=0 / deadzone=21,11 / fast_pskip=0 / chroma_qp_offset=-3 / threads=9 / lookahead_threads=2 / sliced_threads=0 / nr=0 / decimate=0 / interlaced=0 / bluray_compat=0 / constrained_intra=0 / bframes=12 / b_pyramid=2 / b_adapt=2 / b_bias=0 / direct=3 / weightb=1 / open_gop=0 / weightp=2 / keyint=240 / keyint_min=23 / scenecut=40 / intra_refresh=0 / rc_lookahead=60 / rc=2pass / mbtree=0 / bitrate=878 / ratetol=1.0 / qcomp=0.75 / qpmin=0 / qpmax=69 / qpstep=4 / cplxblur=20.0 / qblur=0.5 / vbv_maxrate=50000 / vbv_bufsize=62500 / nal_hrd=none / filler=0 / ip_ratio=1.20 / pb_ratio=1.30 / aq=3:0.80
Language: English
Default: Yes
Forced: No
Color range: Limited
Color primaries: BT.709
Transfer characteristics: BT.709
Matrix coefficients: BT.709

Audio
ID: 2
Format: AAC LC SBR
Format/Info: Advanced Audio Codec Low Complexity with Spectral Band Replication
Commercial name: HE-AAC
Format settings: Explicit
Codec ID: A_AAC-2
Duration: 1 h 47 min
Bit rate: 96.0 kb/s
Channel (s): 2 channels
Channel layout: L R
Sampling rate: 48.0 kHz
Frame rate: 23.438 FPS (2048 SPF)
Compression mode: Lossy
Stream size: 72.5 MiB (10%)
Title: Дублированный | Мосфильм-Мастер
Language: Russian
Default: Yes
Forced: No

Text #1
ID: 3
Format: UTF-8
Codec ID: S_TEXT/UTF8
Codec ID/Info: UTF-8 Plain Text
Duration: 1 h 40 min
Bit rate: 12 b/s
Frame rate: 0.022 FPS
Count of elements: 131
Stream size: 9.14 KiB (0%)
Title: Forced
Language: Russian
Default: No
Forced: No

Text #2
ID: 4
Format: UTF-8
Codec ID: S_TEXT/UTF8
Codec ID/Info: UTF-8 Plain Text
Duration: 1 h 40 min
Bit rate: 104 b/s
Frame rate: 0.333 FPS
Count of elements: 2007
Stream size: 77.2 KiB (0%)
Title: Full [Enigma]
Language: Russian
Default: No
Forced: No

Text #3
ID: 5
Format: UTF-8
Codec ID: S_TEXT/UTF8
Codec ID/Info: UTF-8 Plain Text
Duration: 1 h 36 min
Bit rate: 73 b/s
Frame rate: 0.271 FPS
Count of elements: 1569
Stream size: 51.6 KiB (0%)
Title: Full
Language: English (US)
Default: No
Forced: No

Text #4
ID: 6
Format: UTF-8
Codec ID: S_TEXT/UTF8
Codec ID/Info: UTF-8 Plain Text
Duration: 1 h 45 min
Bit rate: 77 b/s
Frame rate: 0.286 FPS
Count of elements: 1813
Stream size: 59.7 KiB (0%)
Title: SDH
Language: English (US)
Default: No
Forced: No

Menu
00:00:00.000: en: Chapter 01
00:03:26.206: en: Chapter 02
00:09:29.443: en: Chapter 03
00:19:48.187: en: Chapter 04
00:26:08.483: en: Chapter 05
00:32:27.946: en: Chapter 06
00:37:28.955: en: Chapter 07
00:45:23.721: en: Chapter 08
00:56:49.614: en: Chapter 09
01:03:10.995: en: Chapter 10
01:13:16.392: en: Chapter 11
01:19:46.782: en: Chapter 12
01:24:10.920: en: Chapter 13
01:29:51.386: en: Chapter 14
01:37:04.068: en: Chapter 15
01:40:08.711: en: Chapter 16

Другие фильмы
У данной публикации пока нет комментариев.
Будь первым, оставь своё мнение в комментариях!
Информация
Посетители, находящиеся в группе Гости, не могут оставлять комментарии к данной публикации.
Самый популярный релиз недели
Донаты
Мы в соц. сетях / RSS

Лучшие релизы месяца
Лучшие SD недели
Лучшие 720p недели
Лучшие 1080p недели
Лучшие 4K недели
Вы недавно смотрели
Реклама
Последние комментарии
...

Bonzo

14 июня 2024 14:52

...

rmzshka

13 июня 2024 17:48

...

rmzshka

13 июня 2024 12:24

...

LisNick

13 июня 2024 08:45

...

SkySpirit

8 июня 2024 19:54

Реклама