+4

Бюро магических услуг / The Portable Door (2023) BDRip-AVC от DoMiNo & селезень | D

Информация о фильме
Название: Бюро магических услуг
Оригинальное название: The Portable Door
Год выхода: 2023
Жанр: Фэнтези, комедия, детектив, приключения
Режиссер: Джеффри Уокер
В ролях: Кристоф Вальц, Сэм Нил, Рэйчел Хаус, Миранда Отто, Патрик Гибсон, Софи Уайлд, Джессика Де Гау, Дэймон Херриман, Крис Пэнг, Диана Лин, Кристофер Соммерс, Джейсон Уайлдер

О фильме:
Самые обычные клерки работают в весьма необычной фирме. Здесь распутывают самые странные происшествия и занимаются поисками магических артефактов. Непримечательная парочка стажеров — исполнителей среднего звена, даже не подозревает, во что ввязалась, и думает лишь о том, как бы разобраться с рутиной до ужина, желательно не изменив ход истории и не повергнув Вселенную в хаос временных парадоксов. Иначе повышения им точно не видать.

Страна: Австралия
Студия: Jim Henson Company, The, MEP Capital
Продолжительность: 01:55:56
Перевод 1: Профессиональный (полное дублирование) | Велес
Перевод 2: Профессиональный многоголосый | Jaskier
Субтитры: Русские (Full), Английские

Файл
Формат: Matroska
Качество: BDRip-AVC | Исх.The Portable Door 2023 BluRay 1080p REMUX AVC DTS-HD MA 5 1-LEGi0N
Видео: 720x300 at 23.976 fps, [email protected], ~804 kbps
Аудио: AAC, 2 ch, ~96 kbps - | Русский | Бюро магических услуг / The Portable Door (2023) BDRip-AVC от DoMiNo & селезень | D
Формат субтитров: softsub (SRT)

Авторизуйтесь для получения доступа к скачиванию

Нет аккаунта? Регистрация открыта и займёт меньше минуты

Вход Регистрация

x264 [info]: frame I: 1488 Avg QP: 13.62 size: 30987
x264 [info]: frame P: 36661 Avg QP: 15.81 size: 9701
x264 [info]: frame B: 128634 Avg QP: 18.47 size: 2311

General
Unique ID: 127020948896804972137250905739455323520 (0×5F8F584BA905F633A4597385505B5D80)
Complete name: B: The.Portable.Door.2023.DUB.BDRip.x264.seleZen.mkv
Format: Matroska
Format version: Version 4
File size: 747 MiB
Duration: 1 h 55 min
Overall bit rate: 901 kb/s
Frame rate: 23.976 FPS
Movie name: The.Portable.Door.2023.DUB.BDRip.x264.seleZen
Encoded date: 22.05.2024 11:33:53 UTC
Writing application: mkvmerge v84.0 ('Sleeper') 64-bit
Writing library: libebml v1.4.5 + libmatroska v1.7.1
Cover: Yes
Attachments: cover.jpg / small_cover.jpg

Video
ID: 1
Format: AVC
Format/Info: Advanced Video Codec
Format profile: [email protected]
Format settings: CABAC / 14 Ref Frames
Format settings, CABAC: Yes
Format settings, Reference: 14 frames
Codec ID: V_MPEG4/ISO/AVC
Duration: 1 h 55 min
Bit rate: 804 kb/s
Width: 720 pixels
Height: 300 pixels
Display aspect ratio: 2.40:1
Frame rate mode: Constant
Frame rate: 23.976 (24000/1001) FPS
Color space: YUV
Chroma subsampling: 4:2:0
Bit depth: 8 bits
Scan type: Progressive
Bits/(Pixel*Frame): 0.155
Stream size: 667 MiB (89%)
Title: -=DoMiNo=-
Writing library: x264 core 164 r3191 -DoMiNo
Encoding settings: cabac=1 / ref=14 / deblock=1:-2:-1 / analyse=0×3:0×133 / me=umh / subme=10 / psy=1 / psy_rd=1.00:0.00 / mixed_ref=1 / me_range=32 / chroma_me=1 / trellis=2 / 8×8dct=1 / cqm=0 / deadzone=21,11 / fast_pskip=0 / chroma_qp_offset=-2 / threads=9 / lookahead_threads=2 / sliced_threads=0 / nr=0 / decimate=0 / interlaced=0 / bluray_compat=0 / constrained_intra=0 / bframes=12 / b_pyramid=2 / b_adapt=2 / b_bias=0 / direct=3 / weightb=1 / open_gop=0 / weightp=2 / keyint=240 / keyint_min=23 / scenecut=40 / intra_refresh=0 / rc_lookahead=60 / rc=2pass / mbtree=0 / bitrate=804 / ratetol=1.0 / qcomp=0.70 / qpmin=0 / qpmax=69 / qpstep=4 / cplxblur=20.0 / qblur=0.5 / vbv_maxrate=50000 / vbv_bufsize=62500 / nal_hrd=none / filler=0 / ip_ratio=1.20 / pb_ratio=1.30 / aq=3:1.00
Language: English
Default: Yes
Forced: No
Color range: Limited
Color primaries: BT.709
Transfer characteristics: BT.709
Matrix coefficients: BT.709

Audio
ID: 2
Format: AAC LC SBR
Format/Info: Advanced Audio Codec Low Complexity with Spectral Band Replication
Commercial name: HE-AAC
Format settings: Explicit
Codec ID: A_AAC-2
Duration: 1 h 55 min
Bit rate: 96.0 kb/s
Channel (s): 2 channels
Channel layout: L R
Sampling rate: 48.0 kHz
Frame rate: 23.438 FPS (2048 SPF)
Compression mode: Lossy
Stream size: 78.5 MiB (11%)
Title: Dub [Veles]
Language: Russian
Default: Yes
Forced: No

Text #1
ID: 3
Format: UTF-8
Codec ID: S_TEXT/UTF8
Codec ID/Info: UTF-8 Plain Text
Duration: 1 h 54 min
Bit rate: 75 b/s
Frame rate: 0.234 FPS
Count of elements: 1601
Stream size: 63.4 KiB (0%)
Title: Full
Language: Russian
Default: No
Forced: No

Text #2
ID: 4
Format: UTF-8
Codec ID: S_TEXT/UTF8
Codec ID/Info: UTF-8 Plain Text
Duration: 1 h 53 min
Bit rate: 52 b/s
Frame rate: 0.226 FPS
Count of elements: 1542
Stream size: 43.3 KiB (0%)
Title: Full
Language: English (GB)
Default: No
Forced: No

Text #3
ID: 5
Format: UTF-8
Codec ID: S_TEXT/UTF8
Codec ID/Info: UTF-8 Plain Text
Duration: 1 h 54 min
Bit rate: 62 b/s
Frame rate: 0.274 FPS
Count of elements: 1875
Stream size: 52.0 KiB (0%)
Title: SDH
Language: English (GB)
Default: No
Forced: No

Menu
00:00:00.000: Chapter 01
00:14:12.435: Chapter 02
00:22:59.837: Chapter 03
00:34:30.402: Chapter 04
00:42:38.264: Chapter 05
00:54:15.794: Chapter 06
01:08:21.014: Chapter 07
01:18:43.302: Chapter 08
01:32:44.267: Chapter 09
01:41:21.742: Chapter 10
01:45:45.089: Chapter 11
01:48:48.939: Chapter 12

Другие фильмы
У данной публикации пока нет комментариев.
Будь первым, оставь своё мнение в комментариях!
Информация
Посетители, находящиеся в группе Гости, не могут оставлять комментарии к данной публикации.
Самый популярный релиз недели
Донаты
Мы в соц. сетях / RSS

Лучшие релизы месяца
Лучшие SD недели
Лучшие 720p недели
Лучшие 1080p недели
Лучшие 4K недели
Вы недавно смотрели
Реклама
Последние комментарии
...

Bonzo

14 июня 2024 14:52

...

rmzshka

13 июня 2024 17:48

...

rmzshka

13 июня 2024 12:24

...

LisNick

13 июня 2024 08:45

...

SkySpirit

8 июня 2024 19:54

Реклама