+3

Город тайн: Исчезнувшая / Сила природы: Засуха 2 / Force of Nature: The Dry 2 (2024) BDRemux 1080p от селезень | D | Paragraph Media

Информация о фильме
Название: Город тайн: Исчезнувшая
Оригинальное название: Force of Nature: The Dry 2
Год выхода: 2024
Жанр: триллер, криминал, детектив
Режиссер: Роберт Коннолли
В ролях: Эрик Бана, Анна Торв, Деборра-Ли Фернесс, Робин МакЛиви, Сиси Стрингер, Люси Анселл, Жаклин Маккензи, Джереми Линдсэй Тейлор, Ричард Роксбург, Тони Бриггс

О фильме: Пять девушек отправляются на корпоративный тимбилдинг в горы. В ходе квеста бесследно исчезает одна из них, а другие участники похода явно что-то скрывают. На помощь местному следствию приезжает федеральный агент Аарон Фальк. Однако чем больше он углубляется в дело, тем больше прозрений у него возникает. Ведь каждая из вернувшихся рассказывает свою версию произошедшего, а местной полиции совершенно неясно, что тут делает федерал и зачем ему звонила пропавшая перед своим исчезновением.

Страна: США
Студия: Made Up Stories
Продолжительность: 01:52:24
Перевод: Дублированный | Paragraph Media

Качество: BDRemux 1080p
Видео: MPEG-4 AVC, 1920x1080, 23.6 Mbit/s, 24.000 fps
Аудио #01: 48 kHz, AC3, 5.1, 384 Kbps | Дублированный | Paragraph Media | RUS |Город тайн: Исчезнувшая / Сила природы: Засуха 2 / Force of Nature: The Dry 2 (2024) BDRemux 1080p от селезень | D | Paragraph Media
Аудио #02: 48 kHz, E-AC3, 5.1, 384 Kbps | Дублированный | Paragraph Media | RUS |
Аудио #03: 48 kHz, DTS-HD MA, 5.1, 3675 Kbps | Оригинал | ENG |
Субтитры: Русские (Forced, full), английские

Город тайн: Исчезнувшая / Сила природы: Засуха 2 / Force of Nature: The Dry 2 (2024) BDRemux 1080p от селезень | D | Paragraph Media

Авторизуйтесь для получения доступа к скачиванию

Нет аккаунта? Регистрация открыта и займёт меньше минуты

Вход Регистрация

General
Unique ID : 292876373988612413173307621474463337927 (0xDC55F0180A42097ECED221A5B15F4DC7)
Complete name : H:\VideoH\Force.of.Nature.The.Dry.2.2024.BDREMUX.1080p.seleZen.mkv
Format : Matroska
Format version : Version 4
File size : 22.0 GiB
Duration : 1 h 52 min
Overall bit rate mode : Variable
Overall bit rate : 28.1 Mb/s
Frame rate : 24.000 FPS
Movie name : Force of Nature: The Dry 2 (2024) from seleZen
Encoded date : 2024-05-18 08:43:37 UTC
Writing application : mkvmerge v80.0 ('Roundabout') 64-bit
Writing library : libebml v1.4.4 + libmatroska v1.7.1

Video
ID : 1
ID in the original source m : 4113 (0x1011)
Format : AVC
Format/Info : Advanced Video Codec
Format profile : [email protected]
Format settings : CABAC / 4 Ref Frames
Format settings, CABAC : Yes
Format settings, Reference : 4 frames
Format settings, Slice coun : 4 slices per frame
Codec ID : V_MPEG4/ISO/AVC
Duration : 1 h 52 min
Bit rate mode : Variable
Bit rate : 23.6 Mb/s
Maximum bit rate : 38.0 Mb/s
Width : 1 920 pixels
Height : 1 080 pixels
Display aspect ratio : 16:9
Frame rate mode : Constant
Frame rate : 24.000 FPS
Color space : YUV
Chroma subsampling : 4:2:0
Bit depth : 8 bits
Scan type : Progressive
Bits/(Pixel*Frame) : 0.474
Time code of first frame : 01:00:00:00
Stream size : 18.5 GiB (84%)
Language : English
Default : Yes
Forced : No
Original source medium : Blu-ray

Audio #1
ID : 2
Format : AC-3
Format/Info : Audio Coding 3
Commercial name : Dolby Digital
Codec ID : A_AC3
Duration : 1 h 52 min
Bit rate mode : Constant
Bit rate : 384 kb/s
Channel(s) : 6 channels
Channel layout : L R C LFE Ls Rs
Sampling rate : 48.0 kHz
Frame rate : 31.250 FPS (1536 SPF)
Compression mode : Lossy
Stream size : 309 MiB (1%)
Title : Dub [Paragraph Media]
Language : Russian
Service kind : Complete Main
Default : Yes
Forced : No

Audio #2
ID : 3
Format : E-AC-3
Format/Info : Enhanced AC-3
Commercial name : Dolby Digital Plus
Codec ID : A_EAC3
Duration : 1 h 52 min
Bit rate mode : Constant
Bit rate : 384 kb/s
Channel(s) : 6 channels
Channel layout : L R C LFE Ls Rs
Sampling rate : 48.0 kHz
Frame rate : 31.250 FPS (1536 SPF)
Compression mode : Lossy
Stream size : 309 MiB (1%)
Title : Dub [Paragraph Media]
Language : Russian
Service kind : Complete Main
Default : No
Forced : No

Audio #3
ID : 4
ID in the original source m : 4352 (0x1100)
Format : DTS XLL
Format/Info : Digital Theater Systems
Commercial name : DTS-HD Master Audio
Codec ID : A_DTS
Duration : 1 h 52 min
Bit rate mode : Variable
Bit rate : 3 675 kb/s
Channel(s) : 6 channels
Channel layout : C L R Ls Rs LFE
Sampling rate : 48.0 kHz
Frame rate : 93.750 FPS (512 SPF)
Bit depth : 24 bits
Compression mode : Lossless
Stream size : 2.89 GiB (13%)
Title : Original
Language : English
Default : No
Forced : No
Original source medium : Blu-ray

Text #1
ID : 5
Format : UTF-8
Codec ID : S_TEXT/UTF8
Codec ID/Info : UTF-8 Plain Text
Duration : 1 h 44 min
Bit rate : 2 b/s
Frame rate : 0.005 FPS
Count of elements : 33
Stream size : 2.11 KiB (0%)
Title : Forced
Language : Russian
Default : Yes
Forced : No

Text #2
ID : 6
Format : UTF-8
Codec ID : S_TEXT/UTF8
Codec ID/Info : UTF-8 Plain Text
Duration : 1 h 45 min
Bit rate : 86 b/s
Frame rate : 0.210 FPS
Count of elements : 1331
Stream size : 67.0 KiB (0%)
Title : Full
Language : Russian
Default : No
Forced : No

Text #3
ID : 7
Format : UTF-8
Codec ID : S_TEXT/UTF8
Codec ID/Info : UTF-8 Plain Text
Duration : 1 h 45 min
Bit rate : 66 b/s
Frame rate : 0.282 FPS
Count of elements : 1795
Stream size : 52.0 KiB (0%)
Title : Full
Language : English
Default : No
Forced : No

Menu
00:00:00.000 : en:Chapter 01
00:09:59.042 : en:Chapter 02
00:19:48.667 : en:Chapter 03
00:30:24.500 : en:Chapter 04
00:40:17.917 : en:Chapter 05
00:48:20.958 : en:Chapter 06
01:01:01.792 : en:Chapter 07
01:10:39.042 : en:Chapter 08
01:19:17.958 : en:Chapter 09
01:28:09.250 : en:Chapter 10
01:38:40.833 : en:Chapter 11
01:47:48.875 : en:Chapter 12

Другие фильмы
У данной публикации пока нет комментариев.
Будь первым, оставь своё мнение в комментариях!
Информация
Посетители, находящиеся в группе Гости, не могут оставлять комментарии к данной публикации.
Самый популярный релиз недели
Донаты
Мы в соц. сетях / RSS

Лучшие релизы месяца
Лучшие SD недели
Лучшие 720p недели
Лучшие 1080p недели
Лучшие 4K недели
Вы недавно смотрели
Реклама
Последние комментарии
...

Bonzo

14 июня 2024 14:52

...

rmzshka

13 июня 2024 17:48

...

rmzshka

13 июня 2024 12:24

...

LisNick

13 июня 2024 08:45

...

SkySpirit

8 июня 2024 19:54

Реклама