+7

Город тайн: Исчезнувшая / Сила природы: Засуха 2 / Force of Nature: The Dry 2 (2024) BDRip 1080p от селезень | D | Paragraph Media

Информация о фильме
Название: Город тайн: Исчезнувшая
Оригинальное название: Force of Nature: The Dry 2
Год выхода: 2024
Жанр: триллер, криминал, детектив
Режиссер: Роберт Коннолли
В ролях: Эрик Бана, Анна Торв, Деборра-Ли Фернесс, Робин МакЛиви, Сиси Стрингер, Люси Анселл, Жаклин Маккензи, Джереми Линдсэй Тейлор, Ричард Роксбург, Тони Бриггс

О фильме: Пять девушек отправляются на корпоративный тимбилдинг в горы. В ходе квеста бесследно исчезает одна из них, а другие участники похода явно что-то скрывают. На помощь местному следствию приезжает федеральный агент Аарон Фальк. Однако чем больше он углубляется в дело, тем больше прозрений у него возникает. Ведь каждая из вернувшихся рассказывает свою версию произошедшего, а местной полиции совершенно неясно, что тут делает федерал и зачем ему звонила пропавшая перед своим исчезновением.

Страна: США
Студия: Made Up Stories
Продолжительность: 01:52:24
Перевод: Дублированный | Paragraph Media

Качество: BDRip 1080p
Видео: MPEG-4 AVC, 1920x804, 15.6 Mbit/s, 24.000 fps
Аудио #01: 48 kHz, AC3, 5.1, 384 Kbps | Дублированный | Paragraph Media | RUS |Город тайн: Исчезнувшая / Сила природы: Засуха 2 / Force of Nature: The Dry 2 (2024) BDRip 1080p от селезень | D | Paragraph Media
Аудио #02: 48 kHz, E-AC3, 5.1, 384 Kbps | Дублированный | Paragraph Media | RUS |
Аудио #03: 48 kHz, AC3, 5.1, 640 Kbps | Оригинал | ENG |
Субтитры: Русские (Forced, full), английские

Город тайн: Исчезнувшая / Сила природы: Засуха 2 / Force of Nature: The Dry 2 (2024) BDRip 1080p от селезень | D | Paragraph Media

Авторизуйтесь для получения доступа к скачиванию

Нет аккаунта? Регистрация открыта и займёт меньше минуты

Вход Регистрация

General
Unique ID : 5145994207712707284194045746969933324 (0x3DF151A62222129BCBB16059121760C)
Complete name : H:\VideoH\Force.of.Nature.The.Dry.2.2024.BDRip.1080p.seleZen.mkv
Format : Matroska
Format version : Version 4
File size : 13.3 GiB
Duration : 1 h 52 min
Overall bit rate : 17.0 Mb/s
Frame rate : 24.000 FPS
Movie name : Force of Nature: The Dry 2 (2024) from seleZen
Encoded date : 2024-05-18 08:24:56 UTC
Writing application : mkvmerge v80.0 ('Roundabout') 64-bit
Writing library : libebml v1.4.4 + libmatroska v1.7.1

Video
ID : 1
Format : AVC
Format/Info : Advanced Video Codec
Format profile : [email protected]
Format settings : CABAC / 5 Ref Frames
Format settings, CABAC : Yes
Format settings, Reference : 5 frames
Codec ID : V_MPEG4/ISO/AVC
Duration : 1 h 52 min
Bit rate : 15.6 Mb/s
Width : 1 920 pixels
Height : 804 pixels
Display aspect ratio : 2.39:1
Frame rate mode : Constant
Frame rate : 24.000 FPS
Color space : YUV
Chroma subsampling : 4:2:0
Bit depth : 8 bits
Scan type : Progressive
Bits/(Pixel*Frame) : 0.421
Stream size : 12.2 GiB (92%)
Title : SPHD
Writing library : x264 core 164 r3172+8 d0a13eb [Mod by Patman]
Encoding settings : cabac=1 / ref=5 / deblock=1:-3:-3 / analyse=0x3:0x113 / me=umh / subme=11 / psy=1 / psy_rd=1.05:0.00 / mixed_ref=1 / me_range=48 / chroma_me=1 / trellis=2 / 8x8dct=1 / cqm=0 / deadzone=21,11 / fast_pskip=0 / chroma_qp_offset=-2 / threads=25 / lookahead_threads=6 / sliced_threads=0 / nr=0 / decimate=0 / interlaced=0 / bluray_compat=0 / constrained_intra=0 / bframes=11 / b_pyramid=2 / b_adapt=2 / b_bias=0 / direct=3 / weightb=1 / open_gop=0 / weightp=2 / keyint=250 / keyint_min=23 / scenecut=40 / intra_refresh=0 / rc_lookahead=60 / rc=crf / mbtree=0 / crf=16.6 / qcomp=0.60 / qpmin=0 / qpmax=69 / qpstep=4 / vbv_maxrate=62500 / vbv_bufsize=78125 / crf_max=0.0 / nal_hrd=none / filler=0 / ip_ratio=1.30 / pb_ratio=1.20 / aq=3:0.80:1.00
Language : English
Default : Yes
Forced : No
Color range : Limited
Color primaries : BT.709
Transfer characteristics : BT.709
Matrix coefficients : BT.709

Audio #1
ID : 2
Format : AC-3
Format/Info : Audio Coding 3
Commercial name : Dolby Digital
Codec ID : A_AC3
Duration : 1 h 52 min
Bit rate mode : Constant
Bit rate : 384 kb/s
Channel(s) : 6 channels
Channel layout : L R C LFE Ls Rs
Sampling rate : 48.0 kHz
Frame rate : 31.250 FPS (1536 SPF)
Compression mode : Lossy
Stream size : 309 MiB (2%)
Title : Dub [Paragraph Media]
Language : Russian
Service kind : Complete Main
Default : Yes
Forced : No

Audio #2
ID : 3
Format : E-AC-3
Format/Info : Enhanced AC-3
Commercial name : Dolby Digital Plus
Codec ID : A_EAC3
Duration : 1 h 52 min
Bit rate mode : Constant
Bit rate : 384 kb/s
Channel(s) : 6 channels
Channel layout : L R C LFE Ls Rs
Sampling rate : 48.0 kHz
Frame rate : 31.250 FPS (1536 SPF)
Compression mode : Lossy
Stream size : 309 MiB (2%)
Title : Dub [Paragraph Media]
Language : Russian
Service kind : Complete Main
Default : No
Forced : No

Audio #3
ID : 4
Format : AC-3
Format/Info : Audio Coding 3
Commercial name : Dolby Digital
Codec ID : A_AC3
Duration : 1 h 52 min
Bit rate mode : Constant
Bit rate : 640 kb/s
Channel(s) : 6 channels
Channel layout : L R C LFE Ls Rs
Sampling rate : 48.0 kHz
Frame rate : 31.250 FPS (1536 SPF)
Compression mode : Lossy
Stream size : 515 MiB (4%)
Title : Original
Language : English
Service kind : Complete Main
Default : No
Forced : No

Text #1
ID : 5
Format : UTF-8
Codec ID : S_TEXT/UTF8
Codec ID/Info : UTF-8 Plain Text
Duration : 1 h 44 min
Bit rate : 2 b/s
Frame rate : 0.005 FPS
Count of elements : 33
Stream size : 2.11 KiB (0%)
Title : Forced
Language : Russian
Default : Yes
Forced : No

Text #2
ID : 6
Format : UTF-8
Codec ID : S_TEXT/UTF8
Codec ID/Info : UTF-8 Plain Text
Duration : 1 h 45 min
Bit rate : 86 b/s
Frame rate : 0.210 FPS
Count of elements : 1331
Stream size : 67.0 KiB (0%)
Title : Full
Language : Russian
Default : No
Forced : No

Text #3
ID : 7
Format : UTF-8
Codec ID : S_TEXT/UTF8
Codec ID/Info : UTF-8 Plain Text
Duration : 1 h 45 min
Bit rate : 66 b/s
Frame rate : 0.282 FPS
Count of elements : 1795
Stream size : 52.0 KiB (0%)
Title : Full
Language : English
Default : No
Forced : No

Menu
00:00:00.000 : en:Chapter 01
00:09:59.042 : en:Chapter 02
00:19:48.667 : en:Chapter 03
00:30:24.500 : en:Chapter 04
00:40:17.917 : en:Chapter 05
00:48:20.958 : en:Chapter 06
01:01:01.792 : en:Chapter 07
01:10:39.042 : en:Chapter 08
01:19:17.958 : en:Chapter 09
01:28:09.250 : en:Chapter 10
01:38:40.833 : en:Chapter 11
01:47:48.875 : en:Chapter 12

Другие фильмы
У данной публикации пока нет комментариев.
Будь первым, оставь своё мнение в комментариях!
Информация
Посетители, находящиеся в группе Гости, не могут оставлять комментарии к данной публикации.
Самый популярный релиз недели
Донаты
Мы в соц. сетях / RSS

Лучшие релизы месяца
Лучшие SD недели
Лучшие 720p недели
Лучшие 1080p недели
Лучшие 4K недели
Вы недавно смотрели
Реклама
Последние комментарии
...

Bonzo

14 июня 2024 14:52

...

rmzshka

13 июня 2024 17:48

...

rmzshka

13 июня 2024 12:24

...

LisNick

13 июня 2024 08:45

...

SkySpirit

8 июня 2024 19:54

Реклама