+2

Воображаемый друг / Imaginary (2024) BDRip 1080p от селезень | P2

Информация о фильме
Название: Воображаемый друг
Оригинальное название: Imaginary
Год выхода: 2024
Жанр: ужасы
Режиссер: Джефф Уодлоу
В ролях: ДеВанда Уайз, Тэджен Бёрнс, Пайпер Браун, Бетти Бакли, Том Пэйн, Вероника Фалькон, Samuel Salary, Мэттью Сато, Аликс Анджелис, Ванета Уолмсли и др.

О фильме:
Вместе с мужем и двумя падчерицами Джессика переезжает в отчий дом — место, где она была счастлива. Девушка надеется, что это вернёт ей вдохновение для продолжения серии детских книг, а девочкам поможет прийти в себя после того, как их родной матери было диагностировано психическое заболевание. Младшенькая находит в подвале плюшевого медвежонка и теперь целыми днями играет с ним в игры, как вскоре выяснится, далеко не безобидные.

Страна: США
Продолжительность: 01:44:10
Перевод: Профессиональный (двухголосый, закадровый) | ViruseProject (Дорожка собрана с выделенных голосов (Tnx.DVT))
Субтитры: Русские (Full), Английские (Full, SDH)

Файл
Формат: Matroska
Качество: BDRip 1080p
Видео: 1920x804 at 23.976 fps, [email protected], ~16000 kbps
Аудио 1: AC3, 6 ch, ~448 kbps - | Русский | Воображаемый друг / Imaginary (2024) BDRip 1080p от селезень | P2
Аудио 2: E-AC3, 8 ch, ~1536 kbps - | Английский |
Формат субтитров: softsub (SRT)

Авторизуйтесь для получения доступа к скачиванию

Нет аккаунта? Регистрация открыта и займёт меньше минуты

Вход Регистрация

General
Unique ID: 246391183041850217350606559593085139799 (0xB95D373B15FED3D4DE34F3F08349FB57)
Complete name: T: Imaginary.2024.DVO.BDRip.1080p.x264.seleZen.mkv
Format: Matroska
Format version: Version 4
File size: 13.1 GiB
Duration: 1 h 44 min
Overall bit rate: 17.9 Mb/s
Frame rate: 23.976 FPS
Movie name: Imaginary.2024.DVO.BDRip.1080p.x264.seleZen
Encoded date: 18.05.2024 07:15:48 UTC
Writing application: mkvmerge v84.0 ('Sleeper') 64-bit
Writing library: libebml v1.4.5 + libmatroska v1.7.1
Cover: Yes
Attachments: cover.jpg / small_cover.jpg

Video
ID: 1
Format: AVC
Format/Info: Advanced Video Codec
Format profile: [email protected]
Format settings: CABAC / 5 Ref Frames
Format settings, CABAC: Yes
Format settings, Reference: 5 frames
Codec ID: V_MPEG4/ISO/AVC
Duration: 1 h 44 min
Bit rate: 16.0 Mb/s
Width: 1 920 pixels
Height: 804 pixels
Display aspect ratio: 2.39:1
Frame rate mode: Constant
Frame rate: 23.976 (24000/1001) FPS
Color space: YUV
Chroma subsampling: 4:2:0
Bit depth: 8 bits
Scan type: Progressive
Bits/(Pixel*Frame): 0.431
Stream size: 11.6 GiB (89%)
Title: XFR
Writing library: x264 core 164 r3107+12 d987552 [Mod by Patman]
Encoding settings: cabac=1 / ref=5 / deblock=1:-3:-3 / analyse=0×3:0×133 / me=umh / subme=10 / psy=1 / psy_rd=1.05:0.00 / mixed_ref=0 / me_range=48 / chroma_me=1 / trellis=2 / 8×8dct=1 / cqm=0 / deadzone=21,11 / fast_pskip=0 / chroma_qp_offset=-2 / threads=25 / lookahead_threads=6 / sliced_threads=0 / nr=0 / decimate=0 / interlaced=0 / bluray_compat=0 / constrained_intra=0 / bframes=14 / b_pyramid=2 / b_adapt=2 / b_bias=0 / direct=3 / weightb=1 / open_gop=0 / weightp=1 / keyint=240 / keyint_min=23 / scenecut=40 / intra_refresh=0 / rc_lookahead=150 / rc=crf / mbtree=1 / crf=11.8 / qcomp=0.60 / qpmin=0 / qpmax=59 / qpstep=4 / vbv_maxrate=30000 / vbv_bufsize=40000 / crf_max=0.0 / nal_hrd=none / filler=0 / ip_ratio=1.30 / aq=3:0.80:1.00
Language: English
Default: Yes
Forced: No
Color range: Limited
Color primaries: BT.709
Matrix coefficients: BT.709

Audio #1
ID: 2
Format: AC-3
Format/Info: Audio Coding 3
Commercial name: Dolby Digital
Codec ID: A_AC3
Duration: 1 h 44 min
Bit rate mode: Constant
Bit rate: 448 kb/s
Channel (s): 6 channels
Channel layout: L R C LFE Ls Rs
Sampling rate: 48.0 kHz
Frame rate: 31.250 FPS (1536 SPF)
Compression mode: Lossy
Stream size: 334 MiB (2%)
Title: DVO -ViruseProject
Language: Russian
Service kind: Complete Main
Default: Yes
Forced: No
Dialog Normalization: -31 dB
cmixlev: -4.5 dB
surmixlev: -6 dB
dialnorm_Average: -31 dB
dialnorm_Minimum: -31 dB
dialnorm_Maximum: -31 dB

Audio #2
ID: 3
Format: E-AC-3
Format/Info: Enhanced AC-3
Commercial name: Dolby Digital Plus
Format profile: Blu-ray Disc
Format settings: Dolby Surround EX
Codec ID: A_EAC3
Duration: 1 h 44 min
Bit rate mode: Constant
Bit rate: 1 536 kb/s
Channel (s): 8 channels
Channel layout: L R C LFE Ls Rs Lb Rb
Sampling rate: 48.0 kHz
Frame rate: 31.250 FPS (1536 SPF)
Compression mode: Lossy
Stream size: 1.12 GiB (9%)
Language: English
Service kind: Complete Main
Default: No
Forced: No
Dialog Normalization: -31 dB
compr: -0.28 dB
cmixlev: -3.0 dB
surmixlev: -3 dB
dmixmod: Lo/Ro
ltrtcmixlev: -3.0 dB
ltrtsurmixlev: -3.0 dB
lorocmixlev: -3.0 dB
lorosurmixlev: -3.0 dB
dialnorm_Average: -31 dB
dialnorm_Minimum: -31 dB
dialnorm_Maximum: -31 dB

Text #1
ID: 4
Format: UTF-8
Codec ID: S_TEXT/UTF8
Codec ID/Info: UTF-8 Plain Text
Duration: 1 h 38 min
Bit rate: 72 b/s
Frame rate: 0.218 FPS
Count of elements: 1288
Stream size: 52.6 KiB (0%)
Title: Full (ViruseProject)
Language: Russian
Default: No
Forced: No

Text #2
ID: 5
Format: UTF-8
Codec ID: S_TEXT/UTF8
Codec ID/Info: UTF-8 Plain Text
Duration: 1 h 42 min
Bit rate: 45 b/s
Frame rate: 0.218 FPS
Count of elements: 1342
Stream size: 34.3 KiB (0%)
Title: Full
Language: English
Default: No
Forced: No

Text #3
ID: 6
Format: UTF-8
Codec ID: S_TEXT/UTF8
Codec ID/Info: UTF-8 Plain Text
Duration: 1 h 43 min
Bit rate: 61 b/s
Frame rate: 0.287 FPS
Count of elements: 1778
Stream size: 46.8 KiB (0%)
Title: SDH
Language: English
Default: No
Forced: No

Menu
00:00:00.000: Chapter 1
00:05:24.824: Chapter 2
00:14:01.257: Chapter 3
00:20:06.580: Chapter 4
00:27:50.627: Chapter 5
00:34:03.958: Chapter 6
00:43:56.800: Chapter 7
00:48:38.749: Chapter 8
00:58:06.316: Chapter 9
01:05:42.563: Chapter 10
01:09:26.203: Chapter 11
01:16:14.403: Chapter 12
01:20:46.341: Chapter 13
01:24:31.066: Chapter 14
01:32:42.557: Chapter 15
01:38:53.761: Chapter 16

Другие фильмы
У данной публикации пока нет комментариев.
Будь первым, оставь своё мнение в комментариях!
Информация
Посетители, находящиеся в группе Гости, не могут оставлять комментарии к данной публикации.
Самый популярный релиз недели
Донаты
Мы в соц. сетях / RSS

Лучшие релизы месяца
Лучшие SD недели
Лучшие 720p недели
Лучшие 1080p недели
Лучшие 4K недели
Вы недавно смотрели
Реклама
Последние комментарии
...

Bonzo

14 июня 2024 14:52

...

rmzshka

13 июня 2024 17:48

...

rmzshka

13 июня 2024 12:24

...

LisNick

13 июня 2024 08:45

...

SkySpirit

8 июня 2024 19:54

Реклама