+15

Тьма человеческая / Тьма человека / Darkness of Man (2024) BDRip 720p от DoMiNo & селезень | P

Информация о фильме
Название: Тьма человеческая / Тьма человека
Оригинальное название: Darkness of Man
Год выпуска: 2024
Жанр: боевик, триллер
Режиссер: Джеймс Каллен Брэссак / James Cullen Bressack
В ролях: Жан-Клод Ван Дамм, Эмерсон Мин, Кристанна Локен, Питер Ким, Стикки Фингаз, Спенсер Бреслин, Ли Джи-ён, Андрей Ивченко, Зак Уорд, Шеннен Доэрти, Чжин Хва Хванг, Синтия Ротрок, Уэстон Кейдж, Кристос Эндрюс, Шэйн Юн

О фильме:
Расселл Хэтч, агент Интерпола, неожиданно становится опекуном для маленького Джейдена, сына его покойной возлюбленной, которая работала его информатором и погибла во время полицейской операции. Хэтч дал торжественное обещание матери мальчика обеспечить безопасность её сына и его дедушки. Теперь, на фоне войны между преступными группировками в Лос-Анджелесе, он должен выполнить своё обещание, стоит это чего угодно, защищая их от надвигающейся угрозы.

Выпущено: США / JCB Pictures, Robotic Donut, Sandaled Kid Productions, VMI Worldwide
Продолжительность: 01:48:55
Перевод: Профессиональный (многоголосый, закадровый) | TVShows
Субтитры: Русские (Full), Английские

Файл
Формат: Matroska
Качество: BDRip 720p | Исх.Darkness of Man 2024 1080p BluRay REMUX AVC DTS-HD MA 5 1-TRiToN
Видео: 1280x536 at 23.976 fps, MPEG-4 AVC, ~4319 kbps
Аудио 1: AC3, 6 ch, ~384 kbps - | Русский | Тьма человеческая / Тьма человека / Darkness of Man (2024) BDRip 720p от DoMiNo & селезень | P
Аудио 2: AC3, 6 ch, ~640 kbps - | Английский |
Формат субтитров: softsub (SRT)

Авторизуйтесь для получения доступа к скачиванию

Нет аккаунта? Регистрация открыта и займёт меньше минуты

Вход Регистрация

General
Unique ID: 97973071873431992464625088714944741152 (0×49B4ED62A54F483E9DA5E10CDFA2FF20)
Complete name: S: Darkness.of.Man.2024.MVO.BDRip.720p.x264.seleZen.mkv
Format: Matroska
Format version: Version 4
File size: 4.07 GiB
Duration: 1 h 48 min
Overall bit rate: 5 345 kb/s
Frame rate: 23.976 FPS
Movie name: Darkness.of.Man.2024.MVO.BDRip.720p.x264.seleZen
Encoded date: 03.06.2024 08:27:55 UTC
Writing application: mkvmerge v84.0 ('Sleeper') 64-bit
Writing library: libebml v1.4.5 + libmatroska v1.7.1
Cover: Yes
Attachments: cover.jpg / small_cover.jpg

Video
ID: 1
Format: AVC
Format/Info: Advanced Video Codec
Format profile: [email protected]
Format settings: CABAC / 12 Ref Frames
Format settings, CABAC: Yes
Format settings, Reference: 12 frames
Codec ID: V_MPEG4/ISO/AVC
Duration: 1 h 48 min
Bit rate: 4 319 kb/s
Width: 1 280 pixels
Height: 536 pixels
Display aspect ratio: 2.39:1
Frame rate mode: Constant
Frame rate: 23.976 (24000/1001) FPS
Color space: YUV
Chroma subsampling: 4:2:0
Bit depth: 8 bits
Scan type: Progressive
Bits/(Pixel*Frame): 0.263
Stream size: 3.29 GiB (81%)
Title: -=DoMiNo=-
Writing library: x264 core 164 r3191 -DoMiNo
Encoding settings: cabac=1 / ref=12 / deblock=1:-3:-2 / analyse=0×3:0×133 / me=umh / subme=10 / psy=1 / psy_rd=1.05:0.03 / mixed_ref=1 / me_range=32 / chroma_me=1 / trellis=2 / 8×8dct=1 / cqm=0 / deadzone=21,11 / fast_pskip=0 / chroma_qp_offset=-3 / threads=17 / lookahead_threads=4 / sliced_threads=0 / nr=0 / decimate=1 / interlaced=0 / bluray_compat=0 / constrained_intra=0 / bframes=12 / b_pyramid=2 / b_adapt=2 / b_bias=0 / direct=3 / weightb=1 / open_gop=0 / weightp=2 / keyint=240 / keyint_min=23 / scenecut=40 / intra_refresh=0 / rc_lookahead=60 / rc=crf / mbtree=0 / crf=18.8 / qcomp=0.60 / qpmin=0 / qpmax=69 / qpstep=4 / vbv_maxrate=50000 / vbv_bufsize=62500 / crf_max=0.0 / nal_hrd=none / filler=0 / ip_ratio=1.40 / pb_ratio=1.30 / aq=3:0.80
Language: English
Default: Yes
Forced: No

Audio #1
ID: 2
Format: AC-3
Format/Info: Audio Coding 3
Commercial name: Dolby Digital
Codec ID: A_AC3
Duration: 1 h 48 min
Bit rate mode: Constant
Bit rate: 384 kb/s
Channel (s): 6 channels
Channel layout: L R C LFE Ls Rs
Sampling rate: 48.0 kHz
Frame rate: 31.250 FPS (1536 SPF)
Compression mode: Lossy
Stream size: 299 MiB (7%)
Title: MVO -TVShows
Language: Russian
Service kind: Complete Main
Default: Yes
Forced: No
Dialog Normalization: -31 dB
compr: -0.28 dB
cmixlev: -3.0 dB
surmixlev: -3 dB
dmixmod: Lo/Ro
ltrtcmixlev: -3.0 dB
ltrtsurmixlev: -3.0 dB
lorocmixlev: -3.0 dB
lorosurmixlev: -3.0 dB
dialnorm_Average: -31 dB
dialnorm_Minimum: -31 dB
dialnorm_Maximum: -31 dB

Audio #2
ID: 3
Format: AC-3
Format/Info: Audio Coding 3
Commercial name: Dolby Digital
Codec ID: A_AC3
Duration: 1 h 48 min
Bit rate mode: Constant
Bit rate: 640 kb/s
Channel (s): 6 channels
Channel layout: L R C LFE Ls Rs
Sampling rate: 48.0 kHz
Frame rate: 31.250 FPS (1536 SPF)
Compression mode: Lossy
Stream size: 498 MiB (12%)
Language: English
Service kind: Complete Main
Default: No
Forced: No
Dialog Normalization: -31 dB
cmixlev: -4.5 dB
surmixlev: -6 dB
dialnorm_Average: -31 dB
dialnorm_Minimum: -31 dB
dialnorm_Maximum: -31 dB

Text #1
ID: 4
Format: UTF-8
Codec ID: S_TEXT/UTF8
Codec ID/Info: UTF-8 Plain Text
Duration: 1 h 47 min
Bit rate: 71 b/s
Frame rate: 0.198 FPS
Count of elements: 1271
Stream size: 56.3 KiB (0%)
Title: Full
Language: Russian
Default: No
Forced: No

Text #2
ID: 5
Format: UTF-8
Codec ID: S_TEXT/UTF8
Codec ID/Info: UTF-8 Plain Text
Duration: 1 h 7 min
Bit rate: 2 b/s
Frame rate: 0.013 FPS
Count of elements: 53
Stream size: 1.02 KiB (0%)
Language: English
Default: No
Forced: No

Text #3
ID: 6
Format: UTF-8
Codec ID: S_TEXT/UTF8
Codec ID/Info: UTF-8 Plain Text
Duration: 1 h 48 min
Bit rate: 57 b/s
Frame rate: 0.213 FPS
Count of elements: 1384
Stream size: 45.7 KiB (0%)
Title: SDH
Language: English
Default: No
Forced: No

Menu
00:00:00.000: en: Chapter 01
00:07:10.263: en: Chapter 02
00:14:44.801: en: Chapter 03
00:21:34.126: en: Chapter 04
00:29:29.518: en: Chapter 05
00:35:54.235: en: Chapter 06
00:46:07.765: en: Chapter 07
00:59:54.841: en: Chapter 08
01:13:13.180: en: Chapter 09
01:22:36.743: en: Chapter 10
01:33:24.891: en: Chapter 11
01:42:44.241: en: Chapter 12

Другие фильмы
У данной публикации пока нет комментариев.
Будь первым, оставь своё мнение в комментариях!
Информация
Посетители, находящиеся в группе Гости, не могут оставлять комментарии к данной публикации.
Самый популярный релиз недели
Донаты
Мы в соц. сетях / RSS

Лучшие релизы месяца
Лучшие SD недели
Лучшие 720p недели
Лучшие 1080p недели
Лучшие 4K недели
Вы недавно смотрели
Реклама
Последние комментарии
...

Bonzo

14 июня 2024 14:52

...

rmzshka

13 июня 2024 17:48

...

rmzshka

13 июня 2024 12:24

...

LisNick

13 июня 2024 08:45

...

SkySpirit

8 июня 2024 19:54

Реклама