+5

Приключения Тинтина: Тайна Единорога / The Adventures of Tintin (2011) HybridRip 720p от DoMiNo & селезень | D | Open Matte | Локализованная версия

Информация о фильме
Название: Приключения Тинтина: Тайна Единорога
Оригинальное название: The Adventures of Tintin
Год выхода: 2011
Жанр: мультфильм, боевик, детектив, приключения, семейный
Режиссер: Стивен Спилберг
В ролях: Джейми Белл, Энди Серкис, Дэниэл Крэйг, Саймон Пегг, Ник Фрост, Дэниэл Мейс, Гад Эльмалех, Тоби Джонс, Джо Старр, Енн Рейтел

О фильме:
Главный герой — молодой газетный репортёр Тинтин. Благодаря своей профессии он путешествует по всему миру и становится участником увлекательных приключений.

Страна: США, Новая Зеландия, Великобритания
Выпущено: Columbia Pictures
Продолжительность: 01:46:52
Перевод: Профессиональный (полное дублированние)
Субтитры: Русские (Forced — хардсаб, Full), Английские

Файл
Формат: Matroska
Качество: HybridRip 720p | Open Matte | Локализованная версия
Видео: 1280×720 at 23.976 fps, [email protected], ~4046 kbps
Аудио 1: AC3, 6 ch, ~640 kbps — | Русский | Приключения Тинтина: Тайна Единорога / The Adventures of Tintin (2011) HybridRip 720p от DoMiNo & селезень | D | Open Matte | Локализованная версия
Аудио 2: AC3, 6 ch, ~640 kbps — | Английский |
Формат субтитров: softsub (SRT)

Авторизуйтесь для получения доступа к скачиванию

Нет аккаунта? Регистрация открыта и займёт меньше минуты

Вход Регистрация

General
Unique ID: 192607454987073070555609561521726619772 (0×90E6D8B4B1D6CEBDE92A254919CF007C)
Complete name: T: The.Adventures.of.Tintin.DUB.Open.Matte.HybridRip.720p.x264.seleZen.mkv
Format: Matroska
Format version: Version 4
File size: 3.98 GiB
Duration: 1 h 46 min
Overall bit rate: 5 329 kb/s
Frame rate: 23.976 FPS
Movie name: The.Adventures.of.Tintin.DUB.Open.Matte.HybridRip.720p.x264.seleZen
Encoded date: 14.05.2024 16:33:20 UTC
Writing application: mkvmerge v84.0 ('Sleeper') 64-bit
Writing library: libebml v1.4.5 + libmatroska v1.7.1
Cover: Yes
Attachments: cover.jpg / small_cover.jpg

Video
ID: 1
Format: AVC
Format/Info: Advanced Video Codec
Format profile: [email protected]
Format settings: CABAC / 9 Ref Frames
Format settings, CABAC: Yes
Format settings, Reference: 9 frames
Codec ID: V_MPEG4/ISO/AVC
Duration: 1 h 46 min
Bit rate: 4 046 kb/s
Width: 1 280 pixels
Height: 720 pixels
Display aspect ratio: 16:9
Frame rate mode: Constant
Frame rate: 23.976 (24000/1001) FPS
Color space: YUV
Chroma subsampling: 4:2:0
Bit depth: 8 bits
Scan type: Progressive
Bits/(Pixel*Frame): 0.183
Stream size: 3.02 GiB (76%)
Title: -=DoMiNo=-
Writing library: x264 core 164 r3190 -DoMiNo
Encoding settings: cabac=1 / ref=9 / deblock=1:-2:-1 / analyse=0×3:0×133 / me=umh / subme=10 / psy=1 / psy_rd=1.00:0.15 / mixed_ref=1 / me_range=32 / chroma_me=1 / trellis=2 / 8×8dct=1 / cqm=0 / deadzone=21,11 / fast_pskip=0 / chroma_qp_offset=-3 / threads=22 / lookahead_threads=3 / sliced_threads=0 / nr=0 / decimate=1 / interlaced=0 / bluray_compat=0 / constrained_intra=0 / bframes=9 / b_pyramid=2 / b_adapt=2 / b_bias=0 / direct=3 / weightb=1 / open_gop=0 / weightp=2 / keyint=240 / keyint_min=23 / scenecut=40 / intra_refresh=0 / rc_lookahead=60 / rc=crf / mbtree=0 / crf=18.5 / qcomp=0.60 / qpmin=0 / qpmax=69 / qpstep=4 / vbv_maxrate=50000 / vbv_bufsize=62500 / crf_max=0.0 / nal_hrd=none / filler=0 / ip_ratio=1.35 / pb_ratio=1.25 / aq=2:0.90
Language: English
Default: Yes
Forced: No
Color range: Limited
Color primaries: BT.709
Transfer characteristics: BT.709
Matrix coefficients: BT.709

Audio #1
ID: 2
Format: AC-3
Format/Info: Audio Coding 3
Commercial name: Dolby Digital
Codec ID: A_AC3
Duration: 1 h 46 min
Bit rate mode: Constant
Bit rate: 640 kb/s
Channel (s): 6 channels
Channel layout: L R C LFE Ls Rs
Sampling rate: 48.0 kHz
Frame rate: 31.250 FPS (1536 SPF)
Compression mode: Lossy
Stream size: 489 MiB (12%)
Title: DUB
Language: Russian
Service kind: Complete Main
Default: Yes
Forced: No
Dialog Normalization: -31 dB
compr: -0.28 dB
cmixlev: -3.0 dB
surmixlev: -3 dB
dialnorm_Average: -31 dB
dialnorm_Minimum: -31 dB
dialnorm_Maximum: -31 dB

Audio #2
ID: 3
Format: AC-3
Format/Info: Audio Coding 3
Commercial name: Dolby Digital
Codec ID: A_AC3
Duration: 1 h 46 min
Bit rate mode: Constant
Bit rate: 640 kb/s
Channel (s): 6 channels
Channel layout: L R C LFE Ls Rs
Sampling rate: 48.0 kHz
Frame rate: 31.250 FPS (1536 SPF)
Compression mode: Lossy
Stream size: 489 MiB (12%)
Language: English
Service kind: Complete Main
Default: No
Forced: No
Dialog Normalization: -31 dB
cmixlev: -4.5 dB
surmixlev: -6 dB
dialnorm_Average: -31 dB
dialnorm_Minimum: -31 dB
dialnorm_Maximum: -31 dB

Text #1
ID: 4
Format: UTF-8
Codec ID: S_TEXT/UTF8
Codec ID/Info: UTF-8 Plain Text
Duration: 1 h 38 min
Bit rate: 88 b/s
Frame rate: 0.206 FPS
Count of elements: 1219
Stream size: 64.0 KiB (0%)
Title: Full, BD CEE
Language: Russian
Default: No
Forced: No

Text #2
ID: 5
Format: UTF-8
Codec ID: S_TEXT/UTF8
Codec ID/Info: UTF-8 Plain Text
Duration: 1 h 36 min
Bit rate: 54 b/s
Frame rate: 0.205 FPS
Count of elements: 1182
Stream size: 38.1 KiB (0%)
Language: English
Default: No
Forced: No

Menu
00:00:00.000: en: Sir James
00:05:39.297: en: M’s Remains
00:12:12.314: en: Paying The Piper
00:17:11.363: en: Corrupt Or Kill
00:25:36.868: en: The Toughest Training
00:32:37.580: en: Evelyn Tremble
00:37:55.314: en: A New Identity
00:42:29.838: en: Mata Bond
00:50:52.507: en: Spy School
00:56:27.217: en: Stealing The Films
01:02:19.610: en: Game Preparations
01:11:58.981: en: Le Chiffre
01:20:03.965: en: Mind Torture
01:27:30.995: en: Smersh Headquarters
01:34:12.813: en: Casino Royale
01:40:30.482: en: End Credits

Другие фильмы
У данной публикации пока нет комментариев.
Будь первым, оставь своё мнение в комментариях!
Информация
Посетители, находящиеся в группе Гости, не могут оставлять комментарии к данной публикации.
Самый популярный релиз недели
Донаты
Мы в соц. сетях / RSS

Лучшие релизы месяца
Лучшие SD недели
Лучшие 720p недели
Лучшие 1080p недели
Лучшие 4K недели
Вы недавно смотрели
Реклама
Последние комментарии
...

rmzshka

15 мая 2024 13:43

...

Andrey_Vladimirovich

13 мая 2024 18:12

...

Robot

13 мая 2024 16:53

...

rmzshka

13 мая 2024 16:21

...

supermehanik

13 мая 2024 02:03

Реклама