+10

Министерство неджентльменских дел / The Ministry of Ungentlemanly Warfare (2024) WEB-DL 1080p от селезень | D

Информация о фильме
Название: Министерство неджентльменских дел
Оригинальное название: The Ministry of Ungentlemanly Warfare
Год выхода: 2024
Жанр: боевик, драма, военный, история
Режиссер: Гай Ричи
В ролях: Генри Кавилл, Алан Ричсон, Рори Киннер, Генри Голдинг, Фредди Фокс, Эйса Гонсалес, Алекс Петтифер, Бабс Олусанмокун, Кэри Элвес, Хиро Файнс Тиффин

О фильме: 1942 год, Великобритания. Они - лучшие из лучших. Отпетые авантюристы и первоклассные спецы, привыкшие действовать в одиночку. Но когда на кону стоит судьба всего мира, им приходится объединиться в сверхсекретное боевое подразделение и отправиться на выполнение дерзкой миссии против нацистов. Теперь их дело - война, и вести они её будут совершенно не по-джентльменски.

Страна: США, Великобритания, Турция
Студия: Black Bear Pictures, Jerry Bruckheimer Films, Lionsgate
Продолжительность: 02:00:20
Перевод: Дублированный | Мосфильм-Мастер

Качество: WEB-DL 1080p | Amazon Version
Видео: MPEG-4 AVC, 1920x800, 6909 Kbit/s, 23.976 fps
Аудио #01: 48 kHz, AC3, 5.1, 448 Kbps | Дублированный | Мосфильм-Мастер | RUS |Министерство неджентльменских дел / The Ministry of Ungentlemanly Warfare (2024) WEB-DL 1080p от селезень | D
Аудио #02: 48 kHz, E-AC3, 5.1, 448 Kbps | Дублированный | Мосфильм-Мастер | RUS |
Аудио #03: 48 kHz, E-AC3+Atmos, 5.1, 768 Kbps | Оригинал | ENG |
Субтитры: Русские (Forced, full, SDH), английские

Министерство неджентльменских дел / The Ministry of Ungentlemanly Warfare (2024) WEB-DL 1080p от селезень | D

Авторизуйтесь для получения доступа к скачиванию

Нет аккаунта? Регистрация открыта и займёт меньше минуты

Вход Регистрация

General
Unique ID : 235893996970296317902436480583734580250 (0xB17787FFC76FC341E984AE47EF52D41A)
Complete name : H:\VideoH\111\The.Ministry.of.Ungentlemanly.Warfare.2024.AMZN.WEB-DL.1080p.seleZen.mkv
Format : Matroska
Format version : Version 4
File size : 7.21 GiB
Duration : 2 h 0 min
Overall bit rate : 8 574 kb/s
Frame rate : 23.976 FPS
Movie name : The Ministry of Ungentlemanly Warfare 2024 from seleZen
Encoded date : 2024-05-12 22:11:13 UTC
Writing application : mkvmerge v80.0 ('Roundabout') 64-bit
Writing library : libebml v1.4.4 + libmatroska v1.7.1

Video
ID : 1
Format : AVC
Format/Info : Advanced Video Codec
Format profile : High@L4
Format settings : CABAC / 4 Ref Frames
Format settings, CABAC : Yes
Format settings, Reference : 4 frames
Codec ID : V_MPEG4/ISO/AVC
Duration : 2 h 0 min
Bit rate mode : Constant
Bit rate : 6 909 kb/s
Nominal bit rate : 10 000 kb/s
Width : 1 920 pixels
Height : 800 pixels
Display aspect ratio : 2.40:1
Frame rate mode : Constant
Frame rate : 23.976 (24000/1001) FPS
Color space : YUV
Chroma subsampling : 4:2:0
Bit depth : 8 bits
Scan type : Progressive
Bits/(Pixel*Frame) : 0.188
Stream size : 5.81 GiB (81%)
Language : English (US)
Default : Yes
Forced : No
Color range : Limited
Color primaries : BT.709
Transfer characteristics : BT.709
Matrix coefficients : BT.709

Audio #1
ID : 2
Format : AC-3
Format/Info : Audio Coding 3
Commercial name : Dolby Digital
Codec ID : A_AC3
Duration : 2 h 0 min
Bit rate mode : Constant
Bit rate : 448 kb/s
Channel(s) : 6 channels
Channel layout : L R C LFE Ls Rs
Sampling rate : 48.0 kHz
Frame rate : 31.250 FPS (1536 SPF)
Compression mode : Lossy
Stream size : 385 MiB (5%)
Title : Dub
Language : Russian
Service kind : Complete Main
Default : Yes
Forced : No

Audio #2
ID : 3
Format : E-AC-3
Format/Info : Enhanced AC-3
Commercial name : Dolby Digital Plus
Codec ID : A_EAC3
Duration : 2 h 0 min
Bit rate mode : Constant
Bit rate : 448 kb/s
Channel(s) : 6 channels
Channel layout : L R C LFE Ls Rs
Sampling rate : 48.0 kHz
Frame rate : 31.250 FPS (1536 SPF)
Compression mode : Lossy
Stream size : 385 MiB (5%)
Title : Dub
Language : Russian
Service kind : Complete Main
Default : No
Forced : No

Audio #3
ID : 4
Format : E-AC-3 JOC
Format/Info : Enhanced AC-3 with Joint Object Coding
Commercial name : Dolby Digital Plus with Dolby Atmos
Codec ID : A_EAC3
Duration : 2 h 0 min
Bit rate mode : Constant
Bit rate : 768 kb/s
Channel(s) : 6 channels
Channel layout : L R C LFE Ls Rs
Sampling rate : 48.0 kHz
Frame rate : 31.250 FPS (1536 SPF)
Compression mode : Lossy
Delay relative to video : 20 ms
Stream size : 661 MiB (9%)
Title : Original
Language : English
Service kind : Complete Main
Default : No
Forced : No
Complexity index : 16
Number of dynamic objects : 15
Bed channel count : 1 channel
Bed channel configuration : LFE

Text #1
ID : 5
Format : UTF-8
Codec ID : S_TEXT/UTF8
Codec ID/Info : UTF-8 Plain Text
Duration : 1 h 49 min
Bit rate : 10 b/s
Frame rate : 0.020 FPS
Count of elements : 129
Stream size : 8.36 KiB (0%)
Title : Forced
Language : Russian
Default : Yes
Forced : No

Text #2
ID : 6
Format : UTF-8
Codec ID : S_TEXT/UTF8
Codec ID/Info : UTF-8 Plain Text
Duration : 1 h 47 min
Bit rate : 88 b/s
Frame rate : 0.219 FPS
Count of elements : 1409
Stream size : 69.6 KiB (0%)
Title : Full
Language : Russian
Default : No
Forced : No

Text #3
ID : 7
Format : UTF-8
Codec ID : S_TEXT/UTF8
Codec ID/Info : UTF-8 Plain Text
Duration : 1 h 50 min
Bit rate : 107 b/s
Frame rate : 0.283 FPS
Count of elements : 1871
Stream size : 86.8 KiB (0%)
Title : SDH
Language : Russian
Default : No
Forced : No

Text #4
ID : 8
Format : UTF-8
Codec ID : S_TEXT/UTF8
Codec ID/Info : UTF-8 Plain Text
Duration : 1 h 47 min
Bit rate : 54 b/s
Frame rate : 0.232 FPS
Count of elements : 1488
Stream size : 43.0 KiB (0%)
Title : Full
Language : English
Default : No
Forced : No

Text #5
ID : 9
Format : UTF-8
Codec ID : S_TEXT/UTF8
Codec ID/Info : UTF-8 Plain Text
Duration : 1 h 59 min
Bit rate : 66 b/s
Frame rate : 0.285 FPS
Count of elements : 2036
Stream size : 57.8 KiB (0%)
Title : SDH
Language : English
Default : No
Forced : No

Menu
00:00:00.000 : en:Chapter 01
00:07:21.358 : en:Chapter 02
00:17:44.439 : en:Chapter 03
00:30:04.721 : en:Chapter 04
00:41:41.376 : en:Chapter 05
00:52:45.331 : en:Chapter 06
01:03:25.638 : en:Chapter 07
01:13:00.380 : en:Chapter 08
01:23:44.899 : en:Chapter 09
01:35:07.624 : en:Chapter 10
01:44:36.026 : en:Chapter 11
01:50:28.878 : en:Chapter 12

Другие фильмы
Комментарии:

...
supermehanik 13 мая 2024 02:03
0

в сети появился Кубик в Кубе  Добавьте пожалуйста

Информация
Посетители, находящиеся в группе Гости, не могут оставлять комментарии к данной публикации.
Самый популярный релиз недели
Донаты
Мы в соц. сетях / RSS

Лучшие релизы месяца
Лучшие SD недели
Лучшие 720p недели
Лучшие 1080p недели
Лучшие 4K недели
Вы недавно смотрели
Реклама
Последние комментарии
...

Bonzo

14 июня 2024 14:52

...

rmzshka

13 июня 2024 17:48

...

rmzshka

13 июня 2024 12:24

...

LisNick

13 июня 2024 08:45

...

SkySpirit

8 июня 2024 19:54

Реклама