+2

Вестсайдская история / West Side Story (2021) UHD BDRemux 2160p от селезень | 4K | HDR | D

Информация о фильме
Название: Вестсайдская история
Оригинальное название: West Side Story
Год выхода: 2021
Жанр: мюзикл, драма, мелодрама, криминал
Режиссер: Стивен Спилберг
В ролях: Рэйчел Зеглер, Энсел Элгорт, Майк Фейст, Ариана ДеБос, Дэвид Альварес, Кори Столл, Брайан Д'Арси Джеймс, Рита Морено, Джош Андрес Ривера, Айрис Менас

О фильме: Нью-Йорк, конец 1950-х. История противостояния двух уличных банд и невозможной любви юноши и девушки из враждующих группировок.

Страна: США
Студия: 20th Century Studios, Amblin Entertainment, Amblin Partners
Продолжительность: 02:36:20
Перевод: Дублированный | Невафильм

Качество: BDRemux 2160p
Видео: 3840x2160 at 23.976 fps, MPEG-H HEVC HDR Video ~ 41400 kbps avg
Аудио #01: 48 kHz, AC3, 5.1, 384 Kbps | Дублированный | Невафильм | RUS |Вестсайдская история / West Side Story (2021) UHD BDRemux 2160p от селезень | 4K | HDR | D
Аудио #02: 48 kHz, TrueHD, 7.1, 4454 Kbps | Оригинал | ENG |
Аудио #03: 48 kHz, AC3, 5.1, 640 Kbps | Оригинал | ENG |
Субтитры: Русские, Английские

Авторизуйтесь для получения доступа к скачиванию

Нет аккаунта? Регистрация открыта и займёт меньше минуты

Вход Регистрация

General
Unique ID : 144599239337962723323874892340102431715 (0x6CC8CCED6A25DC86C5F708AEC79003E3)
Complete name : H:\VideoH\West.Side.Story.2021.D.BDREMUX.2160p.HDR.seleZen.mkv
Format : Matroska
Format version : Version 4
File size : 51.2 GiB
Duration : 2 h 36 min
Overall bit rate mode : Variable
Overall bit rate : 46.9 Mb/s
Frame rate : 23.976 FPS
Movie name : West Side Story (2021) from seleZen
Encoded date : 2024-05-12 09:24:24 UTC
Writing application : mkvmerge v80.0 ('Roundabout') 64-bit
Writing library : libebml v1.4.4 + libmatroska v1.7.1

Video
ID : 1
Format : HEVC
Format/Info : High Efficiency Video Coding
Format profile : Main [email protected]@High
HDR format : SMPTE ST 2086, HDR10 compatible
Codec ID : V_MPEGH/ISO/HEVC
Duration : 2 h 36 min
Bit rate : 41.4 Mb/s
Width : 3 840 pixels
Height : 2 160 pixels
Display aspect ratio : 16:9
Frame rate mode : Constant
Frame rate : 23.976 (24000/1001) FPS
Color space : YUV
Chroma subsampling : 4:2:0 (Type 2)
Bit depth : 10 bits
Bits/(Pixel*Frame) : 0.208
Stream size : 45.2 GiB (88%)
Writing library : ATEME Titan File 3.9.6 (4.9.6.2)
Language : English
Default : Yes
Forced : No
Color range : Limited
Color primaries : BT.2020
Transfer characteristics : PQ
Matrix coefficients : BT.2020 non-constant
Mastering display color pri : Display P3
Mastering display luminance : min: 0.0050 cd/m2, max: 1000 cd/m2

Audio #1
ID : 2
Format : AC-3
Format/Info : Audio Coding 3
Commercial name : Dolby Digital
Codec ID : A_AC3
Duration : 2 h 36 min
Bit rate mode : Constant
Bit rate : 384 kb/s
Channel(s) : 6 channels
Channel layout : L R C LFE Ls Rs
Sampling rate : 48.0 kHz
Frame rate : 31.250 FPS (1536 SPF)
Compression mode : Lossy
Stream size : 429 MiB (1%)
Title : DUB
Language : Russian
Service kind : Complete Main
Default : Yes
Forced : Yes

Audio #2
ID : 3
Format : MLP FBA 16-ch
Format/Info : Meridian Lossless Packing FBA with 16-channel presentation
Commercial name : Dolby TrueHD with Dolby Atmos
Codec ID : A_TRUEHD
Duration : 2 h 36 min
Bit rate mode : Variable
Bit rate : 4 454 kb/s
Maximum bit rate : 7 233 kb/s
Channel(s) : 8 channels
Channel layout : L R C LFE Ls Rs Lb Rb
Sampling rate : 48.0 kHz
Frame rate : 1 200.000 FPS (40 SPF)
Compression mode : Lossless
Stream size : 4.86 GiB (9%)
Title : Original
Language : English
Default : No
Forced : No
Number of dynamic objects : 13
Bed channel count : 1 channel
Bed channel configuration : LFE

Audio #3
ID : 4
Format : AC-3
Format/Info : Audio Coding 3
Commercial name : Dolby Digital
Codec ID : A_AC3
Duration : 2 h 36 min
Bit rate mode : Constant
Bit rate : 640 kb/s
Channel(s) : 6 channels
Channel layout : L R C LFE Ls Rs
Sampling rate : 48.0 kHz
Frame rate : 31.250 FPS (1536 SPF)
Compression mode : Lossy
Stream size : 716 MiB (1%)
Language : English
Service kind : Complete Main
Default : No
Forced : No

Text #1
ID : 5
Format : UTF-8
Codec ID : S_TEXT/UTF8
Codec ID/Info : UTF-8 Plain Text
Duration : 1 h 54 min
Bit rate : 0 b/s
Frame rate : 0.001 FPS
Count of elements : 10
Stream size : 418 Bytes (0%)
Title : Forced
Language : Russian
Default : Yes
Forced : No

Text #2
ID : 6
Format : UTF-8
Codec ID : S_TEXT/UTF8
Codec ID/Info : UTF-8 Plain Text
Duration : 2 h 24 min
Bit rate : 86 b/s
Frame rate : 0.237 FPS
Count of elements : 2053
Stream size : 92.1 KiB (0%)
Title : Full_[FOCS]
Language : Russian
Default : No
Forced : No

Text #3
ID : 7
Format : UTF-8
Codec ID : S_TEXT/UTF8
Codec ID/Info : UTF-8 Plain Text
Duration : 2 h 23 min
Bit rate : 59 b/s
Frame rate : 0.153 FPS
Count of elements : 1319
Stream size : 63.0 KiB (0%)
Title : Full
Language : Russian
Default : No
Forced : No

Text #4
ID : 8
Format : UTF-8
Codec ID : S_TEXT/UTF8
Codec ID/Info : UTF-8 Plain Text
Duration : 2 h 22 min
Bit rate : 53 b/s
Frame rate : 0.236 FPS
Count of elements : 2010
Stream size : 56.0 KiB (0%)
Title : Full
Language : English
Default : No
Forced : No

Text #5
ID : 9
Format : UTF-8
Codec ID : S_TEXT/UTF8
Codec ID/Info : UTF-8 Plain Text
Duration : 2 h 26 min
Bit rate : 58 b/s
Frame rate : 0.275 FPS
Count of elements : 2417
Stream size : 63.3 KiB (0%)
Title : SDH
Language : English
Default : No
Forced : No

Menu
00:00:00.000 : en:Chapter 01
00:07:34.162 : en:Chapter 02
00:13:14.335 : en:Chapter 03
00:16:45.171 : en:Chapter 04
00:20:45.494 : en:Chapter 05
00:25:04.962 : en:Chapter 06
00:30:40.255 : en:Chapter 07
00:35:07.147 : en:Chapter 08
00:38:42.570 : en:Chapter 09
00:43:52.213 : en:Chapter 10
00:45:50.122 : en:Chapter 11
00:48:53.305 : en:Chapter 12
00:56:42.399 : en:Chapter 13
01:03:14.457 : en:Chapter 14
01:08:33.693 : en:Chapter 15
01:20:01.755 : en:Chapter 16
01:26:38.610 : en:Chapter 17
01:33:58.925 : en:Chapter 18
01:37:26.591 : en:Chapter 19
01:46:58.287 : en:Chapter 20
01:51:18.630 : en:Chapter 21
01:59:52.352 : en:Chapter 22
02:06:32.543 : en:Chapter 23
02:18:32.137 : en:Chapter 24
02:27:05.817 : en:Chapter 25

Другие фильмы
У данной публикации пока нет комментариев.
Будь первым, оставь своё мнение в комментариях!
Информация
Посетители, находящиеся в группе Гости, не могут оставлять комментарии к данной публикации.
Самый популярный релиз недели
Донаты
Мы в соц. сетях / RSS

Лучшие релизы месяца
Лучшие SD недели
Лучшие 720p недели
Лучшие 1080p недели
Лучшие 4K недели
Вы недавно смотрели
Реклама
Последние комментарии
...

rmzshka

15 мая 2024 13:43

...

Andrey_Vladimirovich

13 мая 2024 18:12

...

Robot

13 мая 2024 16:53

...

rmzshka

13 мая 2024 16:21

...

supermehanik

13 мая 2024 02:03

Реклама