+11

Дюна: Часть вторая / Dune: Part Two (2024) BDRip 1080p от селезень | D

Информация о фильме
Название: Дюна: Часть вторая
Оригинальное название: Dune: Part Two
Год выхода: 2024
Жанр: фантастика, боевик, драма, приключения
Режиссер: Дени Вильнёв
В ролях: Тимоти Шаламе, Зендея, Ребекка Фергюсон, Хавьер Бардем, Джош Бролин, Остин Батлер, Флоренс Пью, Дэйв Батиста, Кристофер Уокен, Леа Сейду

О фильме: Герцог Пол Атрейдес присоединяется к фременам, чтобы стать Муад Дибом, одновременно пытаясь остановить наступление войны.

Страна: США, Канада, ОАЭ, Венгрия, Италия, Новая Зеландия, Иордания, Гамбия
Студия: Legendary Pictures, Villeneuve Films, Warner Bros., Warner Bros. Entertainment
Продолжительность: 02:45:48
Перевод(ы):
#1: Дублированный | Bravo Records Georgia / Movie Dubbing
#2: Дублированный | Red Head Sound
Субтитры: Русские (Forced, Full), Английские (Forced - отдельно, вшитые, full, SDH)

Файл
Формат: Matroska
Качество: BDRip (1080p)
Видео: 1920x804 at 23.976 fps, [email protected], ~10500 kbps
Аудио 1: AC3 / 5.1 / 48 kHz / 384 kbps - | Русский - Bravo Records Georgia / Movie Dubbing) | Дюна: Часть вторая / Dune: Part Two (2024) BDRip 1080p от селезень | D
Аудио 2: E-AC3 / 5.1 / 48 kHz / 384 kbps - | Русский - Bravo Records Georgia / Movie Dubbing) |
Аудио 3: AC3 / 5.1 / 48 kHz / 640 kbps - | Русский - Red Head Sound |
Аудио 4: AC3 / 5.1 / 48 kHz / 448 kbps - | Английский |
Формат субтитров: hardsub / softsub (SRT)

Дюна: Часть вторая / Dune: Part Two (2024) BDRip 1080p от селезень | D

Авторизуйтесь для получения доступа к скачиванию

Нет аккаунта? Регистрация открыта и займёт меньше минуты

Вход Регистрация

General
Unique ID : 225951599894462584739695101220312053915 (0xA9FCB1FA0FE62F265E17AABD184FF89B)
Complete name : H:\VideoH\Dune.Part.Two.2024.BDRip.1080p.seleZen.mkv
Format : Matroska
Format version : Version 4
File size : 14.3 GiB
Duration : 2 h 45 min
Overall bit rate : 12.3 Mb/s
Frame rate : 23.976 FPS
Movie name : Dune.Part.Two.2024.from.seleZen
Encoded date : 2024-05-10 07:29:46 UTC
Writing application : mkvmerge v80.0 ('Roundabout') 64-bit
Writing library : libebml v1.4.4 + libmatroska v1.7.1

Video
ID : 1
Format : AVC
Format/Info : Advanced Video Codec
Format profile : [email protected]
Format settings : CABAC / 5 Ref Frames
Format settings, CABAC : Yes
Format settings, Reference : 5 frames
Codec ID : V_MPEG4/ISO/AVC
Duration : 2 h 45 min
Bit rate : 10.5 Mb/s
Width : 1 920 pixels
Height : 804 pixels
Display aspect ratio : 2.39:1
Frame rate mode : Constant
Frame rate : 23.976 (24000/1001) FPS
Color space : YUV
Chroma subsampling : 4:2:0
Bit depth : 8 bits
Scan type : Progressive
Bits/(Pixel*Frame) : 0.283
Stream size : 12.1 GiB (85%)
Title : ExCaLiBuR
Writing library : x264 core 164 r3107+58M ae98796 t_mod_New [(8 & 10)-bit@all X86_64]
Encoding settings : cabac=1 / ref=5 / deblock=1:-3:-3 / analyse=0x3:0x133 / me=umh / subme=11 / psy=1 / fade_compensate=0.00 / psy_rd=1.00:0.00 / mixed_ref=1 / me_range=32 / chroma_me=1 / trellis=2 / 8x8dct=1 / cqm=0 / deadzone=21,11 / fast_pskip=0 / chroma_qp_offset=-2 / threads=18 / lookahead_threads=4 / sliced_threads=0 / nr=0 / decimate=0 / interlaced=0 / bluray_compat=0 / constrained_intra=0 / fgo=0 / bframes=16 / b_pyramid=2 / b_adapt=2 / b_bias=0 / direct=3 / weightb=1 / open_gop=0 / weightp=2 / keyint=250 / keyint_min=23 / scenecut=40 / intra_refresh=0 / rc_lookahead=250 / rc=crf / mbtree=0 / crf=17.0000 / qcomp=0.60 / qpmin=0:0:0 / qpmax=69:69:69 / qpstep=4 / vbv_maxrate=62500 / vbv_bufsize=78125 / crf_max=0.0 / nal_hrd=none / filler=0 / ip_ratio=1.40 / pb_ratio=1.30 / aq=3:0.90 / aq-sensitivity=10.00 / aq-factor=1.00:1.00:1.00:1.00 / aq2=0 / aq3=0
Language : English
Default : Yes
Forced : No
Color range : Limited
Color primaries : BT.709
Transfer characteristics : BT.709
Matrix coefficients : BT.709

Audio #1
ID : 2
Format : AC-3
Format/Info : Audio Coding 3
Commercial name : Dolby Digital
Codec ID : A_AC3
Duration : 2 h 45 min
Bit rate mode : Constant
Bit rate : 384 kb/s
Channel(s) : 6 channels
Channel layout : L R C LFE Ls Rs
Sampling rate : 48.0 kHz
Frame rate : 31.250 FPS (1536 SPF)
Compression mode : Lossy
Stream size : 455 MiB (3%)
Title : Dub [Bravo Records Georgia / Movie Dubbing]
Language : Russian
Service kind : Complete Main
Default : Yes
Forced : No

Audio #2
ID : 3
Format : E-AC-3
Format/Info : Enhanced AC-3
Commercial name : Dolby Digital Plus
Codec ID : A_EAC3
Duration : 2 h 45 min
Bit rate mode : Constant
Bit rate : 384 kb/s
Channel(s) : 6 channels
Channel layout : L R C LFE Ls Rs
Sampling rate : 48.0 kHz
Frame rate : 31.250 FPS (1536 SPF)
Compression mode : Lossy
Stream size : 455 MiB (3%)
Title : Dub [Bravo Records Georgia / Movie Dubbing]
Language : Russian
Service kind : Complete Main
Default : No
Forced : No

Audio #3
ID : 4
Format : AC-3
Format/Info : Audio Coding 3
Commercial name : Dolby Digital
Codec ID : A_AC3
Duration : 2 h 45 min
Bit rate mode : Constant
Bit rate : 640 kb/s
Channel(s) : 6 channels
Channel layout : L R C LFE Ls Rs
Sampling rate : 48.0 kHz
Frame rate : 31.250 FPS (1536 SPF)
Compression mode : Lossy
Stream size : 759 MiB (5%)
Title : Dub [Red Head Sound]
Language : Russian
Service kind : Complete Main
Default : No
Forced : No

Audio #4
ID : 5
Format : AC-3
Format/Info : Audio Coding 3
Commercial name : Dolby Digital
Codec ID : A_AC3
Duration : 2 h 45 min
Bit rate mode : Constant
Bit rate : 448 kb/s
Channel(s) : 6 channels
Channel layout : L R C LFE Ls Rs
Sampling rate : 48.0 kHz
Frame rate : 31.250 FPS (1536 SPF)
Compression mode : Lossy
Stream size : 531 MiB (4%)
Title : Original
Language : English
Service kind : Complete Main
Default : No
Forced : No

Text #1
ID : 6
Format : UTF-8
Codec ID : S_TEXT/UTF8
Codec ID/Info : UTF-8 Plain Text
Duration : 2 h 39 min
Bit rate : 7 b/s
Frame rate : 0.022 FPS
Count of elements : 214
Stream size : 8.53 KiB (0%)
Title : Forced
Language : Russian
Default : Yes
Forced : Yes

Text #2
ID : 7
Format : UTF-8
Codec ID : S_TEXT/UTF8
Codec ID/Info : UTF-8 Plain Text
Duration : 2 h 45 min
Bit rate : 46 b/s
Frame rate : 0.134 FPS
Count of elements : 1331
Stream size : 56.4 KiB (0%)
Title : Full
Language : Russian
Default : No
Forced : No

Text #3
ID : 8
Format : UTF-8
Codec ID : S_TEXT/UTF8
Codec ID/Info : UTF-8 Plain Text
Duration : 2 h 21 min
Bit rate : 4 b/s
Frame rate : 0.023 FPS
Count of elements : 196
Stream size : 5.01 KiB (0%)
Title : Forced
Language : English
Default : No
Forced : Yes

Text #4
ID : 9
Format : UTF-8
Codec ID : S_TEXT/UTF8
Codec ID/Info : UTF-8 Plain Text
Duration : 2 h 36 min
Bit rate : 32 b/s
Frame rate : 0.137 FPS
Count of elements : 1285
Stream size : 36.9 KiB (0%)
Title : Full
Language : English (US)
Default : No
Forced : No

Text #5
ID : 10
Format : UTF-8
Codec ID : S_TEXT/UTF8
Codec ID/Info : UTF-8 Plain Text
Duration : 2 h 37 min
Bit rate : 46 b/s
Frame rate : 0.195 FPS
Count of elements : 1846
Stream size : 53.3 KiB (0%)
Title : [SDH]
Language : English (US)
Default : No
Forced : No

Menu
00:00:00.000 : en:Chapter 01
00:09:14.220 : en:Chapter 02
00:21:28.913 : en:Chapter 03
00:29:30.018 : en:Chapter 04
00:40:07.905 : en:Chapter 05
00:50:39.912 : en:Chapter 06
01:00:33.129 : en:Chapter 07
01:09:53.523 : en:Chapter 08
01:19:39.483 : en:Chapter 09
01:30:38.933 : en:Chapter 10
01:39:05.064 : en:Chapter 11
01:49:34.860 : en:Chapter 12
01:59:39.422 : en:Chapter 13
02:10:23.607 : en:Chapter 14
02:18:49.279 : en:Chapter 15
02:24:18.233 : en:Chapter 16
02:37:44.789 : en:Chapter 17

Другие фильмы
У данной публикации пока нет комментариев.
Будь первым, оставь своё мнение в комментариях!
Информация
Посетители, находящиеся в группе Гости, не могут оставлять комментарии к данной публикации.
Самый популярный релиз недели
Донаты
Мы в соц. сетях / RSS

Лучшие релизы месяца
Лучшие SD недели
Лучшие 720p недели
Лучшие 1080p недели
Лучшие 4K недели
Вы недавно смотрели
Реклама
Последние комментарии
...

rmzshka

15 мая 2024 13:43

...

Andrey_Vladimirovich

13 мая 2024 18:12

...

Robot

13 мая 2024 16:53

...

rmzshka

13 мая 2024 16:21

...

supermehanik

13 мая 2024 02:03

Реклама