+1

Костолом / Ruthless (2023) BDRemux 1080p от селезень | D

Информация о фильме
Название: Костолом
Оригинальное название: Ruthless
Год выхода: 2023
Жанр: боевик, триллер
Режиссер: Арт Камачо
В ролях: Дермот Малруни, Джефф Фэйи, Маурисио Мендоса, Кесия Роблз, Тонанцин Эспарса, Мелисса Диас, Тексас Бэттл, Ману Интирэйми, Хани Аль Наими, Питер Николас

О фильме: В жизни Гарри произошла трагедия: его дочь была похищена и убита. Разочаровавшись в правосудии, он решает действовать самостоятельно. Гарри выходит на след банды, связанной с похищениями девушек, и собирается мстить. А методы у него жесткие - сначала ломает кости, потом задает вопросы.

Страна: США
Студия: Al Bravo Films, AXI-ON, BondIt, Premiere Entertainment Group, Revisilagi Vfx Studio
Продолжительность: 01:32:45
Перевод: Дублированный | Leff Sound

Качество: BDRemux 1080p
Видео: MPEG-4 AVC, 1920x1080, 30.0 Mbit/s, 23.976 fps
Аудио #01: 48 kHz, AC3, 5.1, 448 Kbps | Дублированный | Leff Sound | RUS |Костолом / Ruthless (2023) BDRemux 1080p от селезень | D
Аудио #02: 48 kHz, E-AC3, 5.1, 448 Kbps | Дублированный | Leff Sound | RUS |
Аудио #03: 48 kHz, DTS-HD MA, 5.1, 1778 Kbps | Оригинал | ENG |
Субтитры: Русские, Английские

Костолом / Ruthless (2023) BDRemux 1080p от селезень | D

Авторизуйтесь для получения доступа к скачиванию

Нет аккаунта? Регистрация открыта и займёт меньше минуты

Вход Регистрация

General
Unique ID : 227151676906575113178316206246496111809 (0xAAE3D25778CC3B8FF8EB3F1A3D510CC1)
Complete name : H:\VideoH\Ruthless.2023.BDREMUX.1080p.seleZen.mkv
Format : Matroska
Format version : Version 4
File size : 21.2 GiB
Duration : 1 h 32 min
Overall bit rate mode : Variable
Overall bit rate : 32.7 Mb/s
Frame rate : 23.976 FPS
Movie name : Ruthless (2023) from seleZen
Encoded date : 2024-05-08 18:17:02 UTC
Writing application : mkvmerge v80.0 ('Roundabout') 64-bit
Writing library : libebml v1.4.4 + libmatroska v1.7.1

Video
ID : 1
ID in the original source m : 4113 (0x1011)
Format : AVC
Format/Info : Advanced Video Codec
Format profile : [email protected]
Format settings : CABAC / 3 Ref Frames
Format settings, CABAC : Yes
Format settings, Reference : 3 frames
Format settings, Slice coun : 4 slices per frame
Codec ID : V_MPEG4/ISO/AVC
Duration : 1 h 32 min
Bit rate mode : Variable
Bit rate : 30.0 Mb/s
Maximum bit rate : 35.0 Mb/s
Width : 1 920 pixels
Height : 1 080 pixels
Display aspect ratio : 16:9
Frame rate mode : Constant
Frame rate : 23.976 (24000/1001) FPS
Color space : YUV
Chroma subsampling : 4:2:0
Bit depth : 8 bits
Scan type : Progressive
Bits/(Pixel*Frame) : 0.603
Stream size : 19.4 GiB (92%)
Language : English
Default : Yes
Forced : No
Original source medium : Blu-ray

Audio #1
ID : 2
Format : AC-3
Format/Info : Audio Coding 3
Commercial name : Dolby Digital
Codec ID : A_AC3
Duration : 1 h 32 min
Bit rate mode : Constant
Bit rate : 448 kb/s
Channel(s) : 6 channels
Channel layout : L R C LFE Ls Rs
Sampling rate : 48.0 kHz
Frame rate : 31.250 FPS (1536 SPF)
Compression mode : Lossy
Stream size : 297 MiB (1%)
Title : Dub [KP] - Leff Sound
Language : Russian
Service kind : Complete Main
Default : Yes
Forced : No

Audio #2
ID : 3
Format : E-AC-3
Format/Info : Enhanced AC-3
Commercial name : Dolby Digital Plus
Codec ID : A_EAC3
Duration : 1 h 32 min
Bit rate mode : Constant
Bit rate : 448 kb/s
Channel(s) : 6 channels
Channel layout : L R C LFE Ls Rs
Sampling rate : 48.0 kHz
Frame rate : 31.250 FPS (1536 SPF)
Compression mode : Lossy
Stream size : 297 MiB (1%)
Title : Dub [KP] - Leff Sound
Language : Russian
Service kind : Complete Main
Default : No
Forced : No

Audio #3
ID : 4
ID in the original source m : 4353 (0x1101)
Format : DTS XLL
Format/Info : Digital Theater Systems
Commercial name : DTS-HD Master Audio
Codec ID : A_DTS
Duration : 1 h 32 min
Bit rate mode : Variable
Bit rate : 1 778 kb/s
Channel(s) : 6 channels
Channel layout : C L R Ls Rs LFE
Sampling rate : 48.0 kHz
Frame rate : 93.750 FPS (512 SPF)
Bit depth : 16 bits
Compression mode : Lossless
Stream size : 1.15 GiB (5%)
Title : Original
Language : English
Default : No
Forced : No
Original source medium : Blu-ray

Text #1
ID : 5
Format : UTF-8
Codec ID : S_TEXT/UTF8
Codec ID/Info : UTF-8 Plain Text
Duration : 1 h 27 min
Bit rate : 88 b/s
Frame rate : 0.274 FPS
Count of elements : 1431
Stream size : 56.7 KiB (0%)
Title : Full
Language : Russian
Default : No
Forced : No

Text #2
ID : 6
Format : UTF-8
Codec ID : S_TEXT/UTF8
Codec ID/Info : UTF-8 Plain Text
Duration : 1 h 31 min
Bit rate : 71 b/s
Frame rate : 0.336 FPS
Count of elements : 1851
Stream size : 47.9 KiB (0%)
Title : SDH
Language : English
Default : No
Forced : No

Menu
00:00:00.000 : en:Chapter 01
00:05:00.717 : en:Chapter 02
00:14:33.789 : en:Chapter 03
00:22:54.456 : en:Chapter 04
00:33:29.632 : en:Chapter 05
00:41:00.875 : en:Chapter 06
00:51:09.566 : en:Chapter 07
00:56:54.869 : en:Chapter 08
01:05:50.780 : en:Chapter 09
01:13:32.408 : en:Chapter 10
01:19:39.941 : en:Chapter 11
01:30:18.162 : en:Chapter 12

Другие фильмы
У данной публикации пока нет комментариев.
Будь первым, оставь своё мнение в комментариях!
Информация
Посетители, находящиеся в группе Гости, не могут оставлять комментарии к данной публикации.
Самый популярный релиз недели
Донаты
Мы в соц. сетях / RSS

Лучшие релизы месяца
Лучшие SD недели
Лучшие 720p недели
Лучшие 1080p недели
Лучшие 4K недели
Вы недавно смотрели
Реклама
Последние комментарии
...

Bonzo

14 июня 2024 14:52

...

rmzshka

13 июня 2024 17:48

...

rmzshka

13 июня 2024 12:24

...

LisNick

13 июня 2024 08:45

...

SkySpirit

8 июня 2024 19:54

Реклама