+11

Манкимэн / Monkey Man (2024) BDRip 720p от DoMiNo & селезень | D

Информация о фильме
Название: Манкимэн
Оригинальное название: Monkey Man
Год выпуска: 2024
Жанр: боевик, триллер, криминал
Режиссер: Дев Патель / Dev Patel
В ролях: Дев Патель, Шарлто Копли, Питобаш Трипати, Випин Шарма, Сикандер Кхер, Адити Калкунте, Собхита Дхулипала, Ашвини Кхалсекар, Макранд Дешпандэ, Джатин Малик

О фильме:
Жестокие улицы Мумбаи сделали из него бойца, который не остановится ни перед чем, чтобы отомстить за свою семью. Отныне его жизнь делится между подпольными боями за деньги, где люди в масках дерутся до последнего вдоха, и работой в элитном ночном клубе для самых богатых и самых порочных. Всё больше погружаясь в тайный мир, он сводит счёты с криминальными авторитетами и коррумпированными политиками, отнимающими у людей всё. Имя ему — Манкимэн.

Страна: США, Канада, Сингапур, Индия
Студия: Bron Studios, Creative Wealth Media Finance, Lost Winds Entertainment, Lucky Elephant Media, Universal Pictures
Продолжительность: 02:01:36
Перевод: Профессиональный (полное дублирование) | Мосфильм-Мастер
Субтитры: Русские (Forced, Full (Официальные-КП)), английские

Файл
Формат: Matroska
Качество: BDRip 720p [Исх.Monkey.Man.2024.1080p.Blu-ray.Remux.AVC.TrueHD.Atmos.7.1-CiNEPHiLES]
Видео: 1280x536 at 23.976 fps, [email protected], ~4717 kbps
Аудио 1: AC3, 6 ch, ~448 kbps - | Русский | Манкимэн / Monkey Man (2024) BDRip 720p от DoMiNo & селезень | D
Аудио 2: E-AC3, 6 ch, ~448 kbps - | Русский |
Аудио 3: AC3, 6 ch, ~448 kbps - | Английский |
Формат субтитров: softsub (SRT)

Авторизуйтесь для получения доступа к скачиванию

Нет аккаунта? Регистрация открыта и займёт меньше минуты

Вход Регистрация

x264 [info]: frame I:1127 Avg QP:13.89 size: 81875
x264 [info]: frame P:44347 Avg QP:15.33 size: 46393
x264 [info]: frame B:129462 Avg QP:17.68 size: 16626

General
Unique ID : 40369771841329344053236981374732282461 (0x1E5EEF6C2210C656EF398445A3012A5D)
Complete name : G:Monkey.Man.2024.DUB.BDRip.720p.x264.seleZen.mkv
Format : Matroska
Format version : Version 4
File size : 5.15 GiB
Duration : 2 h 1 min
Overall bit rate : 6 064 kb/s
Frame rate : 23.976 FPS
Movie name : Monkey.Man.2024.DUB.BDRip.720p.x264.seleZen
Encoded date : 2024-06-20 10:52:36 UTC
Writing application : mkvmerge v85.0 ('Shame For You') 64-bit
Writing library : libebml v1.4.5 + libmatroska v1.7.1
Cover : Yes
Attachments : cover.jpg / small_cover.jpg

Video
ID : 1
Format : AVC
Format/Info : Advanced Video Codec
Format profile : [email protected]
Format settings : CABAC / 12 Ref Frames
Format settings, CABAC : Yes
Format settings, Reference : 12 frames
Codec ID : V_MPEG4/ISO/AVC
Duration : 2 h 1 min
Bit rate : 4 717 kb/s
Width : 1 280 pixels
Height : 536 pixels
Display aspect ratio : 2.39:1
Frame rate mode : Constant
Frame rate : 23.976 (24000/1001) FPS
Color space : YUV
Chroma subsampling : 4:2:0
Bit depth : 8 bits
Scan type : Progressive
Bits/(Pixel*Frame) : 0.287
Stream size : 4.01 GiB (78%)
Title : -=DoMiNo=-
Writing library : x264 core 164 r3191 -DoMiNo
Encoding settings : cabac=1 / ref=12 / deblock=1:-3:-2 / analyse=0x3:0x133 / me=umh / subme=10 / psy=1 / psy_rd=1.03:0.05 / mixed_ref=1 / me_range=32 / chroma_me=1 / trellis=2 / 8x8dct=1 / cqm=0 / deadzone=21,11 / fast_pskip=0 / chroma_qp_offset=-3 / threads=17 / lookahead_threads=4 / sliced_threads=0 / nr=0 / decimate=1 / interlaced=0 / bluray_compat=0 / constrained_intra=0 / bframes=10 / b_pyramid=2 / b_adapt=2 / b_bias=0 / direct=3 / weightb=1 / open_gop=0 / weightp=2 / keyint=240 / keyint_min=23 / scenecut=40 / intra_refresh=0 / rc_lookahead=60 / rc=crf / mbtree=0 / crf=18.0 / qcomp=0.60 / qpmin=0 / qpmax=69 / qpstep=4 / vbv_maxrate=50000 / vbv_bufsize=62500 / crf_max=0.0 / nal_hrd=none / filler=0 / ip_ratio=1.35 / pb_ratio=1.30 / aq=3:0.90
Language : English
Default : Yes
Forced : No
Color range : Limited
Color primaries : BT.709
Transfer characteristics : BT.709
Matrix coefficients : BT.709

Audio #1
ID : 2
Format : AC-3
Format/Info : Audio Coding 3
Commercial name : Dolby Digital
Codec ID : A_AC3
Duration : 2 h 1 min
Bit rate mode : Constant
Bit rate : 448 kb/s
Channel(s) : 6 channels
Channel layout : L R C LFE Ls Rs
Sampling rate : 48.0 kHz
Frame rate : 31.250 FPS (1536 SPF)
Compression mode : Lossy
Stream size : 390 MiB (7%)
Title : Dub [Mosfilm-Master] - KP
Language : Russian
Service kind : Complete Main
Default : Yes
Forced : No
Dialog Normalization : -31 dB
cmixlev : -3.0 dB
surmixlev : -6 dB
dialnorm_Average : -31 dB
dialnorm_Minimum : -31 dB
dialnorm_Maximum : -31 dB

Audio #2
ID : 3
Format : E-AC-3
Format/Info : Enhanced AC-3
Commercial name : Dolby Digital Plus
Codec ID : A_EAC3
Duration : 2 h 1 min
Bit rate mode : Constant
Bit rate : 448 kb/s
Channel(s) : 6 channels
Channel layout : L R C LFE Ls Rs
Sampling rate : 48.0 kHz
Frame rate : 31.250 FPS (1536 SPF)
Compression mode : Lossy
Stream size : 390 MiB (7%)
Title : Dub [Mosfilm-Master] - KP
Language : Russian
Service kind : Complete Main
Default : No
Forced : No
Dialog Normalization : -31 dB
dialnorm_Average : -31 dB
dialnorm_Minimum : -31 dB
dialnorm_Maximum : -31 dB

Audio #3
ID : 4
Format : AC-3
Format/Info : Audio Coding 3
Commercial name : Dolby Digital
Codec ID : A_AC3
Duration : 2 h 1 min
Bit rate mode : Constant
Bit rate : 448 kb/s
Channel(s) : 6 channels
Channel layout : L R C LFE Ls Rs
Sampling rate : 48.0 kHz
Frame rate : 31.250 FPS (1536 SPF)
Compression mode : Lossy
Stream size : 390 MiB (7%)
Title : Original
Language : English
Service kind : Complete Main
Default : No
Forced : No
Dialog Normalization : -27 dB
compr : 5.74 dB
dynrng : 5.60 dB
cmixlev : -3.0 dB
surmixlev : -3 dB
dmixmod : Lt/Rt
ltrtcmixlev : -3.0 dB
ltrtsurmixlev : -3.0 dB
lorocmixlev : -3.0 dB
lorosurmixlev : -3.0 dB
dialnorm_Average : -27 dB
dialnorm_Minimum : -27 dB
dialnorm_Maximum : -27 dB

Text #1
ID : 5
Format : UTF-8
Codec ID : S_TEXT/UTF8
Codec ID/Info : UTF-8 Plain Text
Duration : 1 h 40 min
Bit rate : 2 b/s
Frame rate : 0.006 FPS
Count of elements : 34
Stream size : 1.63 KiB (0%)
Title : Forced [Off.] - KP
Language : Russian
Default : No
Forced : No

Text #2
ID : 6
Format : UTF-8
Codec ID : S_TEXT/UTF8
Codec ID/Info : UTF-8 Plain Text
Duration : 1 h 52 min
Bit rate : 50 b/s
Frame rate : 0.148 FPS
Count of elements : 1003
Stream size : 41.3 KiB (0%)
Title : Full [Off.] - KP
Language : Russian
Default : No
Forced : No

Text #3
ID : 7
Format : UTF-8
Codec ID : S_TEXT/UTF8
Codec ID/Info : UTF-8 Plain Text
Duration : 1 h 50 min
Bit rate : 25 b/s
Frame rate : 0.116 FPS
Count of elements : 770
Stream size : 20.6 KiB (0%)
Title : Full
Language : English (US)
Default : No
Forced : No

Text #4
ID : 8
Format : UTF-8
Codec ID : S_TEXT/UTF8
Codec ID/Info : UTF-8 Plain Text
Duration : 1 h 57 min
Bit rate : 47 b/s
Frame rate : 0.219 FPS
Count of elements : 1548
Stream size : 40.8 KiB (0%)
Title : SDH
Language : English (US)
Default : No
Forced : No

Menu
00:00:00.000 : en:Chapter 01
00:05:37.503 : en:Chapter 02
00:10:43.351 : en:Chapter 03
00:14:33.539 : en:Chapter 04
00:21:34.293 : en:Chapter 05
00:26:49.107 : en:Chapter 06
00:33:47.817 : en:Chapter 07
00:38:59.587 : en:Chapter 08
00:43:32.818 : en:Chapter 09
00:52:16.091 : en:Chapter 10
00:59:09.921 : en:Chapter 11
01:06:53.926 : en:Chapter 12
01:14:37.055 : en:Chapter 13
01:18:59.276 : en:Chapter 14
01:23:05.939 : en:Chapter 15
01:30:20.832 : en:Chapter 16
01:35:47.700 : en:Chapter 17
01:41:39.009 : en:Chapter 18
01:48:02.851 : en:Chapter 19
01:53:48.238 : en:Chapter 20

Другие фильмы
У данной публикации пока нет комментариев.
Будь первым, оставь своё мнение в комментариях!
Информация
Посетители, находящиеся в группе Гости, не могут оставлять комментарии к данной публикации.
Самый популярный релиз недели
Донаты
Мы в соц. сетях / RSS

Лучшие релизы месяца
Лучшие SD недели
Лучшие 720p недели
Лучшие 1080p недели
Лучшие 4K недели
Вы недавно смотрели
Реклама
Последние комментарии
...

rmzshka

12 июля 2024 11:30

...

Rustik99

12 июля 2024 10:11

...

-=DoMiNo=-

11 июля 2024 23:42

...

rmzshka

11 июля 2024 11:28

...

-=DoMiNo=-

10 июля 2024 15:08

Реклама