+16

Охотники за привидениями: Леденящий ужас / Ghostbusters: Frozen Empire (2024) WEB-DLRip 720p от DoMiNo | D

Информация о фильме
Название: Охотники за привидениями: Леденящий ужас
Оригинальное название: Ghostbusters: Frozen Empire
Год выпуска: 2024
Жанр: фантастика, фэнтези, комедия, приключения
Режиссер: Гил Кинан / Gil Kenan
В ролях: Пол Радд, Кэрри Кун, Финн Вулфхард, Маккенна Грейс, Кумэйл Нанджиани, Пэттон Освальт, Селеста О’Коннор, Логан Ким, Эмили Элин Линд, Джеймс Акастер

О фильме:
После событий в Оклахоме Спенглеры возвращаются туда, где все началось, — в легендарную пожарную часть Нью-Йорка. Юным охотникам за привидениями, их маме и мистеру Груберсону предстоит объединиться со своими предшественниками, создавшими сверхсекретную исследовательскую лабораторию, благодаря которой борьба с нечистью вышла на новый уровень. Но обнаружив древний артефакт, герои высвобождают новое зло. Нью-Йорк превращается в ледяную империю прямо посреди июля. Охотники за привидениями должны сделать все, чтобы спасти мир от второго ледникового периода.

Выпущено: США, Канада, Великобритания / Columbia Pictures, Ghostcorps
Продолжительность: 01:56:44
Перевод 1: Дублированный (неофициальный) | Soundmasters
Перевод 2: Профессиональный (полное дублирование) | MovieDalen
Субтитры: Русские (Forced), Английские

Файл
Формат: Matroska
Качество: WEB-DLRip 720p [Исх.Ghostbusters.Frozen.Empire.2024.2160p.AMZN.WEB-DL.DDP5.1.H.265-FLUX]
Видео: 1280×534 at 23.976 fps, [email protected], ~2967 kbps
Аудио 1: AC3, 2 ch, 192 kbps — русский (Soundmaster) — неофициальный
Аудио 2: AC3, 2 ch, 192 kbps — русский (MovieDalen) — официальный
Аудио 3: AC3, 6 ch, 448 kbps — английский
Формат субтитров: softsub (SRT)

Авторизуйтесь для получения доступа к скачиванию

Нет аккаунта? Регистрация открыта и займёт меньше минуты

Вход Регистрация

General
Unique ID: 222180215821481247689709457654405524945 (0xA7265A62CD58BFD6A030F3DCEB89EDD1)
Complete name: S: Ghostbusters.Frozen.Empire.2024.2xDUB.WEB-DLRip.720p.x264.seleZen.mkv
Format: Matroska
Format version: Version 4
File size: 3.10 GiB
Duration: 1 h 56 min
Overall bit rate: 3 802 kb/s
Frame rate: 23.976 FPS
Movie name: Ghostbusters.Frozen.Empire.2024.2xDUB.WEB-DLRip.720p.x264.seleZen
Encoded date: 07.05.2024 13:45:10 UTC
Writing application: mkvmerge v84.0 ('Sleeper') 64-bit
Writing library: libebml v1.4.5 + libmatroska v1.7.1
Cover: Yes
Attachments: cover.jpg / small_cover.jpg

Video
ID: 1
Format: AVC
Format/Info: Advanced Video Codec
Format profile: [email protected]
Format settings: CABAC / 5 Ref Frames
Format settings, CABAC: Yes
Format settings, Reference: 5 frames
Codec ID: V_MPEG4/ISO/AVC
Duration: 1 h 56 min
Bit rate: 2 967 kb/s
Width: 1 280 pixels
Height: 534 pixels
Display aspect ratio: 2.40:1
Frame rate mode: Constant
Frame rate: 23.976 (24000/1001) FPS
Color space: YUV
Chroma subsampling: 4:2:0
Bit depth: 8 bits
Scan type: Progressive
Bits/(Pixel*Frame): 0.181
Stream size: 2.42 GiB (78%)
Title: -=DoMiNo=-
Writing library: x264 core 164 r3190 -DoMiNo
Encoding settings: cabac=1 / ref=5 / deblock=1:-2:-1 / analyse=0×3:0×133 / me=umh / subme=10 / psy=1 / psy_rd=1.00:0.15 / mixed_ref=1 / me_range=32 / chroma_me=1 / trellis=2 / 8×8dct=1 / cqm=0 / deadzone=21,11 / fast_pskip=0 / chroma_qp_offset=-3 / threads=17 / lookahead_threads=4 / sliced_threads=0 / nr=0 / decimate=1 / interlaced=0 / bluray_compat=0 / constrained_intra=0 / bframes=12 / b_pyramid=2 / b_adapt=2 / b_bias=0 / direct=3 / weightb=1 / open_gop=0 / weightp=2 / keyint=240 / keyint_min=23 / scenecut=40 / intra_refresh=0 / rc_lookahead=60 / rc=crf / mbtree=0 / crf=18.0 / qcomp=0.60 / qpmin=0 / qpmax=69 / qpstep=4 / vbv_maxrate=50000 / vbv_bufsize=62500 / crf_max=0.0 / nal_hrd=none / filler=0 / ip_ratio=1.35 / pb_ratio=1.25 / aq=3:0.90
Language: English
Default: Yes
Forced: No
Color range: Limited
Color primaries: BT.709
Transfer characteristics: BT.709
Matrix coefficients: BT.709

Audio #1
ID: 2
Format: AC-3
Format/Info: Audio Coding 3
Commercial name: Dolby Digital
Codec ID: A_AC3
Duration: 1 h 56 min
Bit rate mode: Constant
Bit rate: 192 kb/s
Channel (s): 2 channels
Channel layout: L R
Sampling rate: 48.0 kHz
Frame rate: 31.250 FPS (1536 SPF)
Compression mode: Lossy
Stream size: 160 MiB (5%)
Title: DUB — Soundmasters
Language: Russian
Service kind: Complete Main
Default: Yes
Forced: No
Dialog Normalization: -31 dB
dialnorm_Average: -31 dB
dialnorm_Minimum: -31 dB
dialnorm_Maximum: -31 dB

Audio #2
ID: 3
Format: AC-3
Format/Info: Audio Coding 3
Commercial name: Dolby Digital
Codec ID: A_AC3
Duration: 1 h 56 min
Bit rate mode: Constant
Bit rate: 192 kb/s
Channel (s): 2 channels
Channel layout: L R
Sampling rate: 48.0 kHz
Frame rate: 31.250 FPS (1536 SPF)
Compression mode: Lossy
Stream size: 160 MiB (5%)
Title: DUB — MovieDalen
Language: Russian
Service kind: Complete Main
Default: No
Forced: No
Dialog Normalization: -31 dB
dialnorm_Average: -31 dB
dialnorm_Minimum: -31 dB
dialnorm_Maximum: -31 dB

Audio #3
ID: 4
Format: AC-3
Format/Info: Audio Coding 3
Commercial name: Dolby Digital
Codec ID: A_AC3
Duration: 1 h 56 min
Bit rate mode: Constant
Bit rate: 448 kb/s
Channel (s): 6 channels
Channel layout: L R C LFE Ls Rs
Sampling rate: 48.0 kHz
Frame rate: 31.250 FPS (1536 SPF)
Compression mode: Lossy
Stream size: 374 MiB (12%)
Title: Original
Language: English
Service kind: Complete Main
Default: No
Forced: No
Dialog Normalization: -31 dB
cmixlev: -4.5 dB
surmixlev: -6 dB
dialnorm_Average: -31 dB
dialnorm_Minimum: -31 dB
dialnorm_Maximum: -31 dB

Text #1
ID: 5
Format: UTF-8
Codec ID: S_TEXT/UTF8
Codec ID/Info: UTF-8 Plain Text
Duration: 1 h 21 min
Bit rate: 1 b/s
Frame rate: 0.003 FPS
Count of elements: 17
Stream size: 1.14 KiB (0%)
Title: Forced
Language: Russian
Default: No
Forced: No

Text #2
ID: 6
Format: UTF-8
Codec ID: S_TEXT/UTF8
Codec ID/Info: UTF-8 Plain Text
Duration: 1 h 47 min
Bit rate: 55 b/s
Frame rate: 0.236 FPS
Count of elements: 1523
Stream size: 43.7 KiB (0%)
Title: Full
Language: English (US)
Default: No
Forced: No

Text #3
ID: 7
Format: UTF-8
Codec ID: S_TEXT/UTF8
Codec ID/Info: UTF-8 Plain Text
Duration: 1 h 54 min
Bit rate: 66 b/s
Frame rate: 0.296 FPS
Count of elements: 2030
Stream size: 55.5 KiB (0%)
Title: SDH
Language: English (US)
Default: No
Forced: No

Menu
00:00:00.000: en: Scene 1
01:49:13.000: en: End Credits

Другие фильмы
Комментарии:

...
Sergunka 30 апреля 2024 23:37
0

bolonka123,

спасибо, попробую потестить

...
bolonka123 27 апреля 2024 11:18
0

Sergunka, печально, раз возможности регулировать звука каждого канала нет( Может где-то в проигрывателе компа есть что-то в этом духе, а звук тогда передевать не как Bitstream (декодирование на стороне получателя), а  PCM (декодирование на стороне отправителя). Но PCM 5.1 могут не все устройства понимать и воспроизводить только 2.0. У ТВ самсунг возможности регулирования каждого канала нет, как и у саундбаров в целом из-за их урезанности. Повторюсь, что общая проблема с тихим звуком встречается нередко (особенно с голосами). У меня полноценная AV система и поэтому врядли смогу помочь еще чем-то( Может еще у кого есть идеи? Извините за банальность, но попробуйте погуглить как увелить громкость голоса в фильмах или типа того. Напр., MPC плеер - Как увеличить громкость голоса в фильмах.

...
Sergunka 26 апреля 2024 21:43
0

bolonka123,

Нет такой возможности, вроде. А у меня телик самсунг и саундбар самсунг. проигрываю скачанное с компа  через WiFi по DLNA. Я имел в виду, что голоса в фильме очень тихие по сравнению с фоновой музыкой и спецэфектными шумами

...
bolonka123 19 апреля 2024 10:05
0

Sergunka, общий выставляемый уровень громкости зависит от воспроизводимого устройства так, что уровень "34" мало о чём говорит. У меня сейчас AV-ресивер Denon и я ТВ смотрю на -30 (не 30-35), т.к. звук громкий, а фильмы в ср. на -15, а с Harmon&Kardon другая картина была. Да, почему-то бывает достаточно тихий общий звук (я не про убитые эффекты при наложении перевода), а бывает очень сильный. От BDR первой Дюны у меня прям дрожали колонки. Видимо какие-то особенности кодирования/декодирования одной из сторон или желание усилить эффекты. Но чаще, как вы описываете, голоса тихие. М.б. и смешанные варианты. В общем, делаю мелкую подстройку под конкретный фильм. У вас есть возможность усилить центральный канал и ослабить остальные? Например, я иногда делаю - общий звук -20, а центр на -10/-15. Дюну 2 еще не смотрел, жду BDR) 
P.S. Я надеюсь, что говоря о "34" вы имели ввиду уровень "-34". За свои 30 лет ни разу не переходил на положительные уровни звука..


...
Sergunka 17 апреля 2024 23:31
0

А звук по сравнению с музыкой не очень тихий? Скачал в другом месте -невозможно смотреть. Голоса еле слышно на громкости 34. А музыка орет

...
-=DoMiNo=- 17 апреля 2024 13:52
+2

Исходник -DCP-рип, фактически это скриннер с пленки. - как появится в нормальном качестве - обновлю раздачу.

...
bolonka123 17 апреля 2024 11:43
0

Простите, а что за источник релиза? Могу ошибаться, но цифровой релиз вроде как на май-июнь, а то и июль назначен.. (по разным источникам). Я имею ввиду - не экранка или что-то в этом духе?)

Информация
Посетители, находящиеся в группе Гости, не могут оставлять комментарии к данной публикации.
Самый популярный релиз недели
Донаты
Мы в соц. сетях / RSS

Лучшие релизы месяца
Лучшие SD недели
Лучшие 720p недели
Лучшие 1080p недели
Лучшие 4K недели
Вы недавно смотрели
Реклама
Последние комментарии
...

rmzshka

15 мая 2024 13:43

...

Andrey_Vladimirovich

13 мая 2024 18:12

...

Robot

13 мая 2024 16:53

...

rmzshka

13 мая 2024 16:21

...

supermehanik

13 мая 2024 02:03

Реклама