+4

Как пойти на свидание с Билли Уолшем / How to Date Billy Walsh (2024) WEB-DL 720p от селезень | P

Информация о фильме
Название: Как пойти на свидание с Билли Уолшем
Оригинальное название: How to Date Billy Walsh
Год выхода: 2024
Жанр: Комедия, мелодрама
Режиссер: Алекс Пиллаи
В ролях: Люси Панч, Ник Фрост, Гуз Кхан, Кунал Найяр, Тэннер Бьюкэнэн, Тим Дауни, Чаритра Чандран, Себастьян Крофт, Дэйзи Джелли и другие.

О фильме:
История рассказывает о паре друзей детства: Амелии и Арчи. Арчи всегда держал свою любовь к ней в секрете, но как только он набирается смелости заявить о своих чувствах, Амелия влюбляется в Билли Уолша, нового переведенного студента.

Страна: Великобритания
Студия: Amazon Prime Video
Продолжительность: 01:40:47
Перевод: Профессиональный (многоголосый, закадровый) | TVShows
Субтитры: Русские (Full), Английские

Файл
Формат: Matroska
Качество: WEB-DL 720p | AMZN
Видео: 1280@1272×688 at 23.976 fps, MPEG-4 AVC, ~3593 kbps
Аудио 1: AC3, 6 ch, ~384 kbps — | Русский | Как пойти на свидание с Билли Уолшем / How to Date Billy Walsh (2024) WEB-DL 720p от селезень | P
Аудио 2: E-AC3, 6 ch, ~640 kbps — | Английский |
Формат субтитров: softsub (SRT)

Авторизуйтесь для получения доступа к скачиванию

Нет аккаунта? Регистрация открыта и займёт меньше минуты

Вход Регистрация

General
Unique ID: 131102853789877721678318549646649592409 (0×62A17DBEAF11146233FAAFC76C580A59)
Complete name: T: How.to.Date.Billy.Walsh.2024.AMZN.WEB-DL.720p.x264.seleZen.mkv
Format: Matroska
Format version: Version 4
File size: 3.25 GiB
Duration: 1 h 40 min
Overall bit rate: 4 620 kb/s
Frame rate: 23.976 FPS
Movie name: How.to.Date.Billy.Walsh.2024.AMZN.WEB-DL.720p.x264.seleZen
Encoded date: 13.04.2024 20:59:47 UTC
Writing application: mkvmerge v83.0 ('Circle Of Friends') 64-bit
Writing library: libebml v1.4.5 + libmatroska v1.7.1
Cover: Yes
Attachments: cover.jpg / small_cover.jpg

Video
ID: 1
Format: AVC
Format/Info: Advanced Video Codec
Format profile: [email protected]
Format settings: CABAC / 4 Ref Frames
Format settings, CABAC: Yes
Format settings, Reference: 4 frames
Codec ID: V_MPEG4/ISO/AVC
Duration: 1 h 40 min
Bit rate mode: Constant
Bit rate: 3 593 kb/s
Nominal bit rate: 4 000 kb/s
Width: 1 280 pixels
Height: 688 pixels
Display aspect ratio: 1.85:1
Frame rate mode: Constant
Frame rate: 23.976 (24000/1001) FPS
Color space: YUV
Chroma subsampling: 4:2:0
Bit depth: 8 bits
Scan type: Progressive
Bits/(Pixel*Frame): 0.170
Stream size: 2.53 GiB (78%)
Title: -=DoMiNo=-
Language: English (GB)
Default: Yes
Forced: No
Color range: Limited
Color primaries: BT.709
Transfer characteristics: BT.709
Matrix coefficients: BT.709

Audio #1
ID: 2
Format: AC-3
Format/Info: Audio Coding 3
Commercial name: Dolby Digital
Codec ID: A_AC3
Duration: 1 h 40 min
Bit rate mode: Constant
Bit rate: 384 kb/s
Channel (s): 6 channels
Channel layout: L R C LFE Ls Rs
Sampling rate: 48.0 kHz
Frame rate: 31.250 FPS (1536 SPF)
Compression mode: Lossy
Stream size: 277 MiB (8%)
Title: MVO -TVShows
Language: Russian
Service kind: Complete Main
Default: Yes
Forced: No
AC3_metadata cmixlev: -4.5 dB
surmixlev: -6 dB

Audio #2
ID: 3
Format: E-AC-3
Format/Info: Enhanced AC-3
Commercial name: Dolby Digital Plus
Codec ID: A_EAC3
Duration: 1 h 40 min
Bit rate mode: Constant
Bit rate: 640 kb/s
Channel (s): 6 channels
Channel layout: L R C LFE Ls Rs
Sampling rate: 48.0 kHz
Frame rate: 31.250 FPS (1536 SPF)
Compression mode: Lossy
Stream size: 461 MiB (14%)
Title: British
Language: English (GB)
Service kind: Complete Main
Default: No
Forced: No

Text #1
ID: 4
Format: UTF-8
Codec ID: S_TEXT/UTF8
Codec ID/Info: UTF-8 Plain Text
Duration: 1 h 36 min
Bit rate: 60 b/s
Frame rate: 0.216 FPS
Count of elements: 1244
Stream size: 42.8 KiB (0%)
Title: British
Language: English (GB)
Default: No
Forced: No

Text #2
ID: 5
Format: UTF-8
Codec ID: S_TEXT/UTF8
Codec ID/Info: UTF-8 Plain Text
Duration: 1 h 36 min
Bit rate: 67 b/s
Frame rate: 0.246 FPS
Count of elements: 1424
Stream size: 47.8 KiB (0%)
Title: British | SDH
Language: English (GB)
Default: No
Forced: No

Text #3
ID: 6
Format: UTF-8
Codec ID: S_TEXT/UTF8
Codec ID/Info: UTF-8 Plain Text
Duration: 1 h 38 min
Bit rate: 71 b/s
Frame rate: 0.180 FPS
Count of elements: 1057
Stream size: 51.3 KiB (0%)
Title: Full
Language: Russian (RU)
Default: No
Forced: No

Menu
00:00:00.000: en: Scene 1
01:33:11.291: en: End Credits

Другие фильмы
У данной публикации пока нет комментариев.
Будь первым, оставь своё мнение в комментариях!
Информация
Посетители, находящиеся в группе Гости, не могут оставлять комментарии к данной публикации.
Самый популярный релиз недели
Донаты
Мы в соц. сетях / RSS

Лучшие релизы месяца
Лучшие SD недели
Лучшие 720p недели
Лучшие 1080p недели
Лучшие 4K недели
Вы недавно смотрели
Реклама
Последние комментарии
...

rmzshka

15 мая 2024 13:43

...

Andrey_Vladimirovich

13 мая 2024 18:12

...

Robot

13 мая 2024 16:53

...

rmzshka

13 мая 2024 16:21

...

supermehanik

13 мая 2024 02:03

Реклама