+20

Фоллаут / Fallout [S01] (2024) WEB-DLRip-AVC от DoMiNo & селезень | D, P | Red Head Sound, HDRezka Studio, Jaskier

Информация о сериале
Название: Фоллаут
Оригинальное название: Fallout
Год выхода: 2024
Жанр: фантастика, боевик, драма, приключения
Режиссер: Джонатан Нолан, Клер Килнер, Фред Туа
В ролях: Элла Пернелл, Аарон Мотен, Уолтон Гоггинс, Мойзес Ариас, Лесли Аггамс, Зак Черри, Род Луцци, Сарита Чоудри и др.

О сериале:
Сериал «Fallout» — это телевизионная адаптация одноименной культовой видеоигры о постапокалиптической Америке. Действие разворачивается в далеком будущем в Лос-Анджелесе, через сотни лет после ядерной войны, уничтожившей или сильно видоизменившей все живое на планете. В подземных убежищах, построенных корпорацией «Волт-Тек», долгие десятилетия живут мирные граждане, которые скрываются от радиации, мутантов и бандитов. Однажды они отправляют на поверхность разведчицу Люси, которая должна исследовать постапокалиптический мир и понять, насколько он пригоден для жизни. За стенами бункера Люси сталкивается с такими людьми и существами, о которых даже не подозревала. Одним из них оказывается жестокий и непобедимый Гуль. Сериал «Фоллаут» снят по мотивам культовой одноименной компьютерной игры, выпущенной в 1997 году.

Страна: США
Студия: Amazon Studios, Kilter Films, Bethesda Game Studios, Big Indie Pictures
Продолжительность: ~00:55:00 серия
Перевод 1: Дублированный (неофициальный) | Red Head Sound
Перевод 2: Профессиональный (многоголосый закадровый) | HDRezka Studio
Перевод 3: Профессиональный (многоголосый закадровый) | Jaskier 18 +
Субтитры: Русские (Forced, Full), английские (Full, SDH)

Файл
Формат: Matroska
Качество: WEB-DLRip-AVC
Видео: 1024×428, 1024×426 at 24.000 fps, [email protected], ~1800 kbps
Аудио 1: AC3, 2 ch, ~192 kbps — | Русский | Фоллаут / Fallout [S01] (2024) WEB-DLRip-AVC от DoMiNo & селезень | D, P | Red Head Sound, HDRezka Studio, Jaskier | Red Head Sound
Аудио 2: AC3, 2 ch, ~192 kbps — | Русский | | HDRezka Studio
Аудио 3: AC3, 6 ch, ~384 kbps — | Русский | | Jaskier
Формат субтитров: softsub (SRT)

qwnMd.png

Авторизуйтесь для получения доступа к скачиванию

Нет аккаунта? Регистрация открыта и займёт меньше минуты

Вход Регистрация

x264 [info]: frame I:1079 Avg QP:15.08 size: 59666
x264 [info]: frame P:23294 Avg QP:17.96 size: 22331
x264 [info]: frame B:83567 Avg QP:18.84 size: 5093

General
Unique ID : 324734793142759295438796086803033609901 (0xF44DA56E01745D6EC30222FBF7A9D6AD)
Complete name : T:Fallout.[S01].2024.WEB-DLRip.x264.seleZenFallout.S01E01.WEB-DLRip.x264.seleZen.mkv
Format : Matroska
Format version : Version 4
File size : 1.34 GiB
Duration : 1 h 14 min
Overall bit rate : 2 568 kb/s
Frame rate : 24.000 FPS
Movie name : Fallout.S01E01.WEB-DLRip.x264.seleZen
Encoded date : 2024-04-30 17:10:43 UTC
Writing application : mkvmerge v84.0 ('Sleeper') 64-bit
Writing library : libebml v1.4.5 + libmatroska v1.7.1
Cover : Yes
Attachments : cover.jpg / small_cover.jpg

Video
ID : 1
Format : AVC
Format/Info : Advanced Video Codec
Format profile : [email protected]
Format settings : CABAC / 10 Ref Frames
Format settings, CABAC : Yes
Format settings, Reference : 10 frames
Codec ID : V_MPEG4/ISO/AVC
Duration : 1 h 14 min
Bit rate : 1 800 kb/s
Width : 1 024 pixels
Height : 428 pixels
Display aspect ratio : 2.39:1
Frame rate mode : Constant
Frame rate : 24.000 FPS
Color space : YUV
Chroma subsampling : 4:2:0
Bit depth : 8 bits
Scan type : Progressive
Bits/(Pixel*Frame) : 0.171
Stream size : 963 MiB (70%)
Title : -=DoMiNo=-
Writing library : x264 core 164 r3190 -DoMiNo
Encoding settings : cabac=1 / ref=10 / deblock=1:-2:-1 / analyse=0x3:0x133 / me=umh / subme=10 / psy=1 / psy_rd=1.00:0.15 / mixed_ref=1 / me_range=32 / chroma_me=1 / trellis=2 / 8x8dct=1 / cqm=0 / deadzone=21,11 / fast_pskip=0 / chroma_qp_offset=-3 / threads=13 / lookahead_threads=3 / sliced_threads=0 / nr=0 / decimate=0 / interlaced=0 / bluray_compat=0 / constrained_intra=0 / bframes=12 / b_pyramid=2 / b_adapt=2 / b_bias=0 / direct=3 / weightb=1 / open_gop=0 / weightp=2 / keyint=240 / keyint_min=24 / scenecut=40 / intra_refresh=0 / rc_lookahead=60 / rc=2pass / mbtree=0 / bitrate=1800 / ratetol=1.0 / qcomp=0.60 / qpmin=0 / qpmax=69 / qpstep=4 / cplxblur=20.0 / qblur=0.5 / vbv_maxrate=50000 / vbv_bufsize=62500 / nal_hrd=none / filler=0 / ip_ratio=1.20 / pb_ratio=1.38 / aq=3:0.90
Language : English
Default : Yes
Forced : No
Color range : Limited
Color primaries : BT.709
Transfer characteristics : BT.709
Matrix coefficients : BT.709

Audio #1
ID : 2
Format : AC-3
Format/Info : Audio Coding 3
Commercial name : Dolby Digital
Codec ID : A_AC3
Duration : 1 h 14 min
Bit rate mode : Constant
Bit rate : 192 kb/s
Channel(s) : 2 channels
Channel layout : L R
Sampling rate : 48.0 kHz
Frame rate : 31.250 FPS (1536 SPF)
Compression mode : Lossy
Stream size : 103 MiB (7%)
Title : Dub -Red Head Sound
Language : Russian
Service kind : Complete Main
Default : Yes
Forced : No

Audio #2
ID : 3
Format : AC-3
Format/Info : Audio Coding 3
Commercial name : Dolby Digital
Codec ID : A_AC3
Duration : 1 h 14 min
Bit rate mode : Constant
Bit rate : 192 kb/s
Channel(s) : 2 channels
Channel layout : L R
Sampling rate : 48.0 kHz
Frame rate : 31.250 FPS (1536 SPF)
Compression mode : Lossy
Stream size : 103 MiB (7%)
Title : MVO -HDRezka Studio
Language : Russian
Service kind : Complete Main
Default : No
Forced : No

Audio #3
ID : 4
Format : AC-3
Format/Info : Audio Coding 3
Commercial name : Dolby Digital
Codec ID : A_AC3
Duration : 1 h 14 min
Bit rate mode : Constant
Bit rate : 384 kb/s
Channel(s) : 6 channels
Channel layout : L R C LFE Ls Rs
Sampling rate : 48.0 kHz
Frame rate : 31.250 FPS (1536 SPF)
Compression mode : Lossy
Stream size : 206 MiB (15%)
Title : MVO -Jaskier
Language : Russian
Service kind : Complete Main
Default : No
Forced : No
AC3_metadata cmixlev : -4.5 dB
surmixlev : -6 dB

Text #1
ID : 5
Format : UTF-8
Codec ID : S_TEXT/UTF8
Codec ID/Info : UTF-8 Plain Text
Duration : 1 h 8 min
Bit rate : 1 b/s
Frame rate : 0.007 FPS
Count of elements : 30
Stream size : 968 Bytes (0%)
Title : Forced
Language : Russian
Default : No
Forced : No

Text #2
ID : 6
Format : UTF-8
Codec ID : S_TEXT/UTF8
Codec ID/Info : UTF-8 Plain Text
Duration : 1 h 11 min
Bit rate : 47 b/s
Frame rate : 0.117 FPS
Count of elements : 499
Stream size : 24.7 KiB (0%)
Title : Full
Language : Russian (RU)
Default : No
Forced : No

Text #3
ID : 7
Format : UTF-8
Codec ID : S_TEXT/UTF8
Codec ID/Info : UTF-8 Plain Text
Duration : 1 h 9 min
Bit rate : 39 b/s
Frame rate : 0.168 FPS
Count of elements : 699
Stream size : 20.3 KiB (0%)
Title : English
Language : English (US)
Default : No
Forced : No

Text #4
ID : 8
Format : UTF-8
Codec ID : S_TEXT/UTF8
Codec ID/Info : UTF-8 Plain Text
Duration : 1 h 10 min
Bit rate : 49 b/s
Frame rate : 0.223 FPS
Count of elements : 946
Stream size : 25.7 KiB (0%)
Title : English SDH
Language : English (US)
Default : No
Forced : No

Menu
00:00:00.000 : Studio Logo
00:00:16.000 : Scene 2
00:03:22.000 : Scene 3
00:07:03.000 : Title Sequence
00:07:11.000 : Scene 5
00:09:03.000 : Scene 6
00:12:03.000 : Scene 7
00:15:50.000 : Scene 8
00:17:36.000 : Scene 9
00:18:33.000 : Scene 10
00:20:23.000 : Scene 11
00:26:16.000 : Scene 12
00:31:00.000 : Scene 13
00:33:37.000 : Scene 14
00:37:22.000 : Scene 15
00:38:58.000 : Scene 16
00:40:49.000 : Scene 17
00:41:26.000 : Scene 18
00:43:37.000 : Scene 19
00:44:54.000 : Scene 20
00:47:58.000 : Scene 21
00:50:01.000 : Scene 22
00:54:50.000 : Scene 23
00:56:01.000 : Scene 24
00:59:20.000 : Scene 25
01:06:09.000 : End Credits
01:07:37.000 : Next on
01:09:57.000 : End Credits

Другие фильмы
Комментарии:

...
Rograr 3 мая 2024 23:58
0

Нормальное качество будет? Хотя бы 1080р...

Информация
Посетители, находящиеся в группе Гости, не могут оставлять комментарии к данной публикации.
Самый популярный релиз недели
Донаты
Мы в соц. сетях / RSS

Лучшие релизы месяца
Лучшие SD недели
Лучшие 720p недели
Лучшие 1080p недели
Лучшие 4K недели
Вы недавно смотрели
Реклама
Последние комментарии
...

rmzshka

15 мая 2024 13:43

...

Andrey_Vladimirovich

13 мая 2024 18:12

...

Robot

13 мая 2024 16:53

...

rmzshka

13 мая 2024 16:21

...

supermehanik

13 мая 2024 02:03

Реклама