+2

Не смотри туда / Don't Look Away (2023) WEB-DL 1080p от селезень | D

Информация о фильме
Название: Не смотри туда
Оригинальное название: Don't Look Away
Год выхода: 2023
Жанр: ужасы
Режиссер: Майкл Бафаро
В ролях: Келли Бастард, Майкл Миттон, Колм Хилл, Рене Лаи, Абу Дукули, Бриттани Пилгрим, Софи Том, Джейсон Хейни, Ванесса Ностбаккен, Майкл Бафаро

О фильме: После ужасной автомобильной аварии Фрэнки пытается убедить друзей, что произошедшее не было случайностью. Она уверена, что в аварии виновата чудовищная сущность, которая теперь преследует ее. Друзья поднимают девушку на смех, но вскоре они начинают погибать. Ужасная особенность в том, что все, кто хоть раз увидит это создание, обречен на ужасную смерть. У Фрэнки остается последняя надежда - найти того, кто знает тайну чудовища и сможет остановить череду кровавых убийств.

Страна: Канада
Студия: IndustryWorks Studios
Продолжительность: 01:22:20
Перевод: Дублированный | Leff Sound

Качество: WEB-DL 1080p
Видео: MPEG-4 AVC, 1920x804, 4978 Kbit/s, 24.000 fps
Аудио #01: 48 kHz, AC3, 5.1, 384 Kbps | Дублированный | Leff Sound | RUS |Не смотри туда / Don't Look Away (2023) WEB-DL 1080p от селезень | D
Аудио #02: 48 kHz, E-AC3, 5.1, 384 Kbps | Дублированный | Leff Sound | RUS |
Субтитры: Русские (Full)

Не смотри туда / Don't Look Away (2023) WEB-DL 1080p от селезень | D

Авторизуйтесь для получения доступа к скачиванию

Нет аккаунта? Регистрация открыта и займёт меньше минуты

Вход Регистрация

General
Unique ID : 299326045674333907351806221049620896983 (0xE13019758CD30FADA4E22C32A9149CD7)
Complete name : H:\VideoH\Dont.Look.Away.2023.WEB-DL.1080p.seleZen.mkv
Format : Matroska
Format version : Version 4
File size : 3.31 GiB
Duration : 1 h 22 min
Overall bit rate : 5 743 kb/s
Frame rate : 24.000 FPS
Movie name : Don't Look Away 2023 from seleZen
Encoded date : 2024-04-12 08:58:14 UTC
Writing application : mkvmerge v80.0 ('Roundabout') 64-bit
Writing library : libebml v1.4.4 + libmatroska v1.7.1

Video
ID : 1
Format : AVC
Format/Info : Advanced Video Codec
Format profile : High@L4
Format settings : CABAC / 3 Ref Frames
Format settings, CABAC : Yes
Format settings, Reference : 3 frames
Codec ID : V_MPEG4/ISO/AVC
Duration : 1 h 22 min
Bit rate : 4 978 kb/s
Width : 1 920 pixels
Height : 804 pixels
Display aspect ratio : 2.39:1
Frame rate mode : Constant
Frame rate : 24.000 FPS
Color space : YUV
Chroma subsampling : 4:2:0
Bit depth : 8 bits
Scan type : Progressive
Bits/(Pixel*Frame) : 0.134
Stream size : 2.86 GiB (87%)
Default : Yes
Forced : No
Color range : Limited
Color primaries : BT.709
Transfer characteristics : BT.709
Matrix coefficients : BT.709

Audio #1
ID : 2
Format : AC-3
Format/Info : Audio Coding 3
Commercial name : Dolby Digital
Codec ID : A_AC3
Duration : 1 h 22 min
Bit rate mode : Constant
Bit rate : 384 kb/s
Channel(s) : 6 channels
Channel layout : L R C LFE Ls Rs
Sampling rate : 48.0 kHz
Frame rate : 31.250 FPS (1536 SPF)
Compression mode : Lossy
Stream size : 226 MiB (7%)
Language : Russian
Service kind : Complete Main
Default : Yes
Forced : No

Audio #2
ID : 3
Format : E-AC-3
Format/Info : Enhanced AC-3
Commercial name : Dolby Digital Plus
Codec ID : A_EAC3
Duration : 1 h 22 min
Bit rate mode : Constant
Bit rate : 384 kb/s
Channel(s) : 6 channels
Channel layout : L R C LFE Ls Rs
Sampling rate : 48.0 kHz
Frame rate : 31.250 FPS (1536 SPF)
Compression mode : Lossy
Stream size : 226 MiB (7%)
Language : Russian
Service kind : Complete Main
Default : No
Forced : No

Text
ID : 4
Format : UTF-8
Codec ID : S_TEXT/UTF8
Codec ID/Info : UTF-8 Plain Text
Duration : 1 h 19 min
Bit rate : 47 b/s
Frame rate : 0.151 FPS
Count of elements : 717
Stream size : 27.3 KiB (0%)
Language : Russian
Default : No
Forced : No

Другие фильмы
У данной публикации пока нет комментариев.
Будь первым, оставь своё мнение в комментариях!
Информация
Посетители, находящиеся в группе Гости, не могут оставлять комментарии к данной публикации.
Самый популярный релиз недели
Донаты
Мы в соц. сетях / RSS

Лучшие релизы месяца
Лучшие SD недели
Лучшие 720p недели
Лучшие 1080p недели
Лучшие 4K недели
Вы недавно смотрели
Реклама
Последние комментарии
...

rmzshka

15 мая 2024 13:43

...

Andrey_Vladimirovich

13 мая 2024 18:12

...

Robot

13 мая 2024 16:53

...

rmzshka

13 мая 2024 16:21

...

supermehanik

13 мая 2024 02:03

Реклама