+5

Реинкарнация. Демоны желаний / Мешок лжи / Bag of Lies (2024) WEB-DLRip-AVC от DoMiNo & селезень | P2

Информация о фильме
Название: Реинкарнация. Демоны желаний / Мешок лжи
Оригинальное название: Bag of Lies
Год выхода: 2024
Жанр: ужасы
Режиссер: Дэвид Джеймс
В ролях: Джуди Маккуин Бауэр, Брэнди Боткин, Мэдисон Паллинс, Патрик Тафт, Терри Токантинс, Джон Уэллс и др.

О фильме:
Весь мир рушится, когда молодая, но уже преуспевшая мелодистка Клэр заболевает страшной болезнью. Её муж Мэтт самоотверженно ищет способы исцеления, а, когда перепробовано уже всё, готов воспользоваться самыми невероятными предложениями, лишь бы спасти возлюбленную. Например, приволочь в дом причудливый мешок, который нужно «напоить» кровью больного человека и три дня ждать полного выздоровления от самой безнадёжной хвори. Как уверяет прежний владелец мешка, ритуал подействует обязательно, если выполнять три простых правила: не смотреть на мешок, не говорить с ним, и не прикасаться к нему.

Страна: США
Продолжительность: 01:35:55
Перевод: Профессиональный (двухголосый, закадровый) | ViruseProject 18 +
Субтитры: Русские (Full), Английские (SDH)

Файл
Формат: Matroska
Качество: WEB-DLRip-AVC
Видео: 1024×428 at 23.976 fps, [email protected], ~1179 kbps
Аудио: AC3, 2 ch, ~192 kbps — | Русский | Реинкарнация. Демоны желаний / Мешок лжи / Bag of Lies (2024) WEB-DLRip-AVC от DoMiNo & селезень | P2
Формат субтитров: softsub (SRT)

Авторизуйтесь для получения доступа к скачиванию

Нет аккаунта? Регистрация открыта и займёт меньше минуты

Вход Регистрация

x264 [info]: frame I: 1115 Avg QP: 12.46 size: 47774
x264 [info]: frame P: 25951 Avg QP: 14.26 size: 16530
x264 [info]: frame B: 110938 Avg QP: 16.39 size: 3298

General
Unique ID: 249727490647347289506610479579026715059 (0xBBDFC3E54A4B387A3609A9C693CC71B3)
Complete name: I: Bag.of.Lies.2024.DVO.WEB-DLRip.x264.seleZen.mkv
Format: Matroska
Format version: Version 4
File size: 942 MiB
Duration: 1 h 35 min
Overall bit rate: 1 373 kb/s
Frame rate: 23.976 FPS
Movie name: Bag.of.Lies.2024.DVO.WEB-DLRip.x264.seleZen
Encoded date: 11.04.2024 18:26:28 UTC
Writing application: mkvmerge v83.0 ('Circle Of Friends') 64-bit
Writing library: libebml v1.4.5 + libmatroska v1.7.1
Cover: Yes
Attachments: cover.jpg / small_cover.jpg

Video
ID: 1
Format: AVC
Format/Info: Advanced Video Codec
Format profile: [email protected]
Format settings: CABAC / 14 Ref Frames
Format settings, CABAC: Yes
Format settings, Reference: 14 frames
Codec ID: V_MPEG4/ISO/AVC
Duration: 1 h 35 min
Bit rate: 1 179 kb/s
Width: 1 024 pixels
Height: 426 pixels
Display aspect ratio: 2.40:1
Frame rate mode: Constant
Frame rate: 23.976 (24000/1001) FPS
Color space: YUV
Chroma subsampling: 4:2:0
Bit depth: 8 bits
Scan type: Progressive
Bits/(Pixel*Frame): 0.113
Stream size: 809 MiB (86%)
Title: -=DoMiNo=-
Writing library: x264 core 164 r3190 -DoMiNo
Encoding settings: cabac=1 / ref=14 / deblock=1:-2:-1 / analyse=0×3:0×133 / me=umh / subme=10 / psy=1 / psy_rd=1.02:0.03 / mixed_ref=1 / me_range=32 / chroma_me=1 / trellis=2 / 8×8dct=1 / cqm=0 / deadzone=21,11 / fast_pskip=0 / chroma_qp_offset=-3 / threads=13 / lookahead_threads=3 / sliced_threads=0 / nr=0 / decimate=0 / interlaced=0 / bluray_compat=0 / constrained_intra=0 / bframes=10 / b_pyramid=2 / b_adapt=2 / b_bias=0 / direct=1 / weightb=1 / open_gop=0 / weightp=2 / keyint=240 / keyint_min=23 / scenecut=40 / intra_refresh=0 / rc_lookahead=60 / rc=crf / mbtree=0 / crf=18.0 / qcomp=0.60 / qpmin=0 / qpmax=69 / qpstep=4 / vbv_maxrate=50000 / vbv_bufsize=62500 / crf_max=0.0 / nal_hrd=none / filler=0 / ip_ratio=1.40 / pb_ratio=1.30 / aq=3:0.80
Language: English
Default: Yes
Forced: No
Color range: Limited
Color primaries: BT.709
Transfer characteristics: BT.709
Matrix coefficients: BT.709

Audio
ID: 2
Format: AC-3
Format/Info: Audio Coding 3
Commercial name: Dolby Digital
Codec ID: A_AC3
Duration: 1 h 35 min
Bit rate mode: Constant
Bit rate: 192 kb/s
Channel (s): 2 channels
Channel layout: L R
Sampling rate: 48.0 kHz
Frame rate: 31.250 FPS (1536 SPF)
Compression mode: Lossy
Stream size: 132 MiB (14%)
Title: ViruseProject 18+
Language: Russian
Service kind: Complete Main
Default: Yes
Forced: No

Text #1
ID: 3
Format: UTF-8
Codec ID: S_TEXT/UTF8
Codec ID/Info: UTF-8 Plain Text
Duration: 1 h 32 min
Bit rate: 65 b/s
Frame rate: 0.205 FPS
Count of elements: 1142
Stream size: 44.7 KiB (0%)
Title: ViruseProject 18+
Language: Russian
Default: No
Forced: No

Text #2
ID: 4
Format: UTF-8
Codec ID: S_TEXT/UTF8
Codec ID/Info: UTF-8 Plain Text
Duration: 1 h 34 min
Bit rate: 43 b/s
Frame rate: 0.217 FPS
Count of elements: 1233
Stream size: 30.0 KiB (0%)
Title: SDH
Language: English
Default: No
Forced: No

Menu
00:00:00.000: en: Chapter 01
00:05:50.000: en: Chapter 02
00:11:40.000: en: Chapter 03
00:17:30.000: en: Chapter 04
00:23:20.000: en: Chapter 05
00:29:10.000: en: Chapter 06
00:35:00.000: en: Chapter 07
00:40:50.000: en: Chapter 08
00:46:40.000: en: Chapter 09
00:52:30.000: en: Chapter 10
00:58:20.000: en: Chapter 11
01:04:10.000: en: Chapter 12
01:10:00.000: en: Chapter 13
01:15:50.000: en: Chapter 14
01:21:40.000: en: Chapter 15
01:27:30.000: en: Chapter 16
01:33:20.000: en: Chapter 17

Другие фильмы
У данной публикации пока нет комментариев.
Будь первым, оставь своё мнение в комментариях!
Информация
Посетители, находящиеся в группе Гости, не могут оставлять комментарии к данной публикации.
Самый популярный релиз недели
Донаты
Мы в соц. сетях / RSS

Лучшие релизы месяца
Лучшие SD недели
Лучшие 720p недели
Лучшие 1080p недели
Лучшие 4K недели
Вы недавно смотрели
Реклама
Последние комментарии
...

rmzshka

15 мая 2024 13:43

...

Andrey_Vladimirovich

13 мая 2024 18:12

...

Robot

13 мая 2024 16:53

...

rmzshka

13 мая 2024 16:21

...

supermehanik

13 мая 2024 02:03

Реклама