+7

Одержимые злом / Cuando acecha la maldad / When Evil Lurks (2023) BDRip 720p от DoMiNo & селезень | D

Информация о фильме
Название: Одержимые злом
Оригинальное название: Cuando acecha la maldad / When Evil Lurks
Год выпуска: 2023
Жанр: ужасы
Режиссер: Демиан Рунья / Demián Rugna
В ролях: Эсекьель Родригес, Луис Цимбровски, Демиан Саломон, Федерико Лисс, Сильвина Сабатер, Эмилио Воданович, Паула Рубинштейн, Дезире Салгейро, Вирджиния Гарофало, Марсело Мишино

О фильме:
Братья-фермеры Педро и Хайме обнаруживают в лесу изуродованное тело чистильщика, который, как выясняется, направлялся в соседний дом убить одержимого. Когда имеешь дело со злом, нужно соблюдать определённые правила, поэтому братья вместе с соседом Руисом решают отвезти заражённого подальше и там оставить, но тот по дороге исчезает. На следующий день демоническая сила убивает Руиса и его беременную жену, а братья пускаются в бега. Педро заезжает к бывшей супруге забрать детей, но приносит зло с собой.

Выпущено: США, Аргентина / Shudder, La Puerta Roja, Aramos Cine, Machaco Films
Продолжительность: 01:39:42
Перевод: Дублированный | Пифагор
Субтитры: Русские (Full), Английские

Файл
Формат: Matroska
Качество: BDRip 720p
Видео: 1280x536 at 23.976 fps, [email protected], ~4012 kbps
Аудио 1: AC3, 6 ch, ~448 kbps - | Русский | Одержимые злом / Cuando acecha la maldad / When Evil Lurks (2023) BDRip 720p от DoMiNo & селезень | D
Аудио 2: E-AC3, 6 ch, ~448 kbps - | Русский |
Аудио 3: AC3, 6 ch, ~448 kbps - | Испанский |
Формат субтитров: softsub (SRT)

Авторизуйтесь для получения доступа к скачиванию

Нет аккаунта? Регистрация открыта и займёт меньше минуты

Вход Регистрация

General
Unique ID: 336235351010872345740168932944112212752 (0xFCF492B5DA13A8F49A5411C0375B5B10)
Complete name: S: When.Evil.Lurks.2023.DUB.BDRip.720p.x264.seleZen.mkv
Format: Matroska
Format version: Version 4
File size: 3.73 GiB
Duration: 1 h 39 min
Overall bit rate: 5 358 kb/s
Frame rate: 23.976 FPS
Movie name: When.Evil.Lurks.2023.DUB.BDRip.720p.x264.seleZen
Encoded date: 11.04.2024 17:01:43 UTC
Writing application: mkvmerge v83.0 ('Circle Of Friends') 64-bit
Writing library: libebml v1.4.5 + libmatroska v1.7.1
Cover: Yes
Attachments: cover.jpg / small_cover.jpg

Video
ID: 1
Format: AVC
Format/Info: Advanced Video Codec
Format profile: [email protected]
Format settings: CABAC / 12 Ref Frames
Format settings, CABAC: Yes
Format settings, Reference: 12 frames
Codec ID: V_MPEG4/ISO/AVC
Duration: 1 h 39 min
Bit rate: 4 012 kb/s
Width: 1 280 pixels
Height: 536 pixels
Display aspect ratio: 2.39:1
Frame rate mode: Constant
Frame rate: 23.976 (24000/1001) FPS
Color space: YUV
Chroma subsampling: 4:2:0
Bit depth: 8 bits
Scan type: Progressive
Bits/(Pixel*Frame): 0.244
Stream size: 2.79 GiB (75%)
Title: -=DoMiNo=-
Writing library: x264 core 164 r3190 -DoMiNo
Encoding settings: cabac=1 / ref=12 / deblock=1:-2:-2 / analyse=0×3:0×133 / me=umh / subme=10 / psy=1 / psy_rd=1.05:0.03 / mixed_ref=1 / me_range=32 / chroma_me=1 / trellis=2 / 8×8dct=1 / cqm=0 / deadzone=21,11 / fast_pskip=0 / chroma_qp_offset=-3 / threads=17 / lookahead_threads=4 / sliced_threads=0 / nr=0 / decimate=0 / interlaced=0 / bluray_compat=0 / constrained_intra=0 / bframes=10 / b_pyramid=2 / b_adapt=2 / b_bias=0 / direct=1 / weightb=1 / open_gop=0 / weightp=2 / keyint=240 / keyint_min=23 / scenecut=40 / intra_refresh=0 / rc_lookahead=60 / rc=crf / mbtree=0 / crf=16.5 / qcomp=0.60 / qpmin=0 / qpmax=69 / qpstep=4 / vbv_maxrate=50000 / vbv_bufsize=62500 / crf_max=0.0 / nal_hrd=none / filler=0 / ip_ratio=1.40 / pb_ratio=1.30 / aq=3:0.80
Language: English
Default: Yes
Forced: No
Color range: Limited
Color primaries: BT.709
Transfer characteristics: BT.709
Matrix coefficients: BT.709

Audio #1
ID: 2
Format: AC-3
Format/Info: Audio Coding 3
Commercial name: Dolby Digital
Codec ID: A_AC3
Duration: 1 h 39 min
Bit rate mode: Constant
Bit rate: 448 kb/s
Channel (s): 6 channels
Channel layout: L R C LFE Ls Rs
Sampling rate: 48.0 kHz
Frame rate: 31.250 FPS (1536 SPF)
Compression mode: Lossy
Stream size: 319 MiB (8%)
Title: Dub -Пифагор
Language: Russian
Service kind: Complete Main
Default: Yes
Forced: No
AC3_metadata cmixlev: -3.0 dB
surmixlev: -3 dB

Audio #2
ID: 3
Format: E-AC-3
Format/Info: Enhanced AC-3
Commercial name: Dolby Digital Plus
Codec ID: A_EAC3
Duration: 1 h 39 min
Bit rate mode: Constant
Bit rate: 448 kb/s
Channel (s): 6 channels
Channel layout: L R C LFE Ls Rs
Sampling rate: 48.0 kHz
Frame rate: 31.250 FPS (1536 SPF)
Compression mode: Lossy
Stream size: 319 MiB (8%)
Title: Dub -Пифагор
Language: Russian
Service kind: Complete Main
Default: No
Forced: No

Audio #3
ID: 4
Format: AC-3
Format/Info: Audio Coding 3
Commercial name: Dolby Digital
Codec ID: A_AC3
Duration: 1 h 39 min
Bit rate mode: Constant
Bit rate: 448 kb/s
Channel (s): 6 channels
Channel layout: L R C LFE Ls Rs
Sampling rate: 48.0 kHz
Frame rate: 31.250 FPS (1536 SPF)
Compression mode: Lossy
Stream size: 319 MiB (8%)
Title: Argentinian
Language: Spanish
Service kind: Complete Main
Default: No
Forced: No
AC3_metadata cmixlev: -4.5 dB
surmixlev: -6 dB

Text #1
ID: 5
Format: UTF-8
Codec ID: S_TEXT/UTF8
Codec ID/Info: UTF-8 Plain Text
Duration: 1 h 32 min
Bit rate: 73 b/s
Frame rate: 0.233 FPS
Count of elements: 1289
Stream size: 49.3 KiB (0%)
Language: Russian
Default: No
Forced: No

Text #2
ID: 6
Format: UTF-8
Codec ID: S_TEXT/UTF8
Codec ID/Info: UTF-8 Plain Text
Duration: 1 h 32 min
Bit rate: 42 b/s
Frame rate: 0.233 FPS
Count of elements: 1289
Stream size: 28.4 KiB (0%)
Language: English
Default: No
Forced: No

Menu
00:00:00.000: en: Chapter 01
00:12:12.398: en: Chapter 02
00:24:54.827: en: Chapter 03
00:39:17.272: en: Chapter 04
00:53:10.187: en: Chapter 05
01:12:19.794: en: Chapter 06
01:20:40.169: en: Chapter 07
01:35:57.085: en: Chapter 08

Другие фильмы
У данной публикации пока нет комментариев.
Будь первым, оставь своё мнение в комментариях!
Информация
Посетители, находящиеся в группе Гости, не могут оставлять комментарии к данной публикации.
Самый популярный релиз недели
Донаты
Мы в соц. сетях / RSS

Лучшие релизы месяца
Лучшие SD недели
Лучшие 720p недели
Лучшие 1080p недели
Лучшие 4K недели
Вы недавно смотрели
Реклама
Последние комментарии
...

rmzshka

15 мая 2024 13:43

...

Andrey_Vladimirovich

13 мая 2024 18:12

...

Robot

13 мая 2024 16:53

...

rmzshka

13 мая 2024 16:21

...

supermehanik

13 мая 2024 02:03

Реклама