+6

Творец слёз / Fabbricante di lacrime / The Tearsmith (2024) WEB-DLRip-AVC от DoMiNo & селезень | P2

Информация о фильме
Название: Творец слёз
Оригинальное название: Fabbricante di lacrime / The Tearsmith
Год выхода: 2024
Жанр: фэнтези, драма, мелодрама
Режиссер: Алессандро Дженовези
В ролях: Симоне Бальдассерони, Дэна Мелани, Катерина Фериоли, Эко Андриоло Ранци

О фильме:
Ника выросла в приюте, из которого всегда мечтала выбраться. Когда ей исполняется 17, ее мечта наконец сбывается: девочку удочеряет семья Миллиганов. Однако она не единственная, кто покидает приют с этими людьми: Миллиганы также усыновляют другого воспитанника приюта — Ригеля. Этот юноша полон противоречий: у него чарующая ангельская внешность, но за ней кроется темная, злая натура. Нике он напоминает Творца слез из сказки, которую рассказывали в приюте. И жизнь с ним под одной крышей, действительно, наполнена болью и страданиями. Но почему же тогда Ника начинает испытывать влечение к Рикелю?
«Творец слез» (2024) — итальянская мелодрама, экранизация одноименной книги-бестселлера Эрин Дум. Главные роли сыграли Катерина Фериоли и Симоне Бальдассари (рэпер Бьондо).

Страна: Италия
Продолжительность: 01:46:24
Перевод: Профессиональный (двухголосый, закадровый) | ViruseProject
Субтитры: Русские (Full), английские

Файл
Формат: Matroska
Качество: WEB-DLRip-AVC
Видео: 1024×428 at 24.000 fps, [email protected], ~1519 kbps
Аудио: AC3, 6 ch, ~448 kbps — | Русский | Творец слёз / Fabbricante di lacrime / The Tearsmith (2024) WEB-DLRip-AVC от DoMiNo & селезень | P2
Формат субтитров: softsub (SRT)

Авторизуйтесь для получения доступа к скачиванию

Нет аккаунта? Регистрация открыта и займёт меньше минуты

Вход Регистрация

x264 [info]: frame I: 1090 Avg QP: 12.90 size: 41048
x264 [info]: frame P: 32225 Avg QP: 15.16 size: 18692
x264 [info]: frame B: 118331 Avg QP: 17.07 size: 4651

General
Unique ID: 204781084584053920993720991648142312299 (0×9A0F66FC1D271849A5672F4C706FC36B)
Complete name: I: Fabbricante.di.lacrime.2024.DVO.WEB-DLRip.x264.seleZen.mkv
Format: Matroska
Format version: Version 4
File size: 1.45 GiB
Duration: 1 h 45 min
Overall bit rate: 1 966 kb/s
Frame rate: 24.000 FPS
Movie name: Fabbricante.di.lacrime.2024.DVO.WEB-DLRip.x264.seleZen
Encoded date: 11.04.2024 16:17:55 UTC
Writing application: mkvmerge v83.0 ('Circle Of Friends') 64-bit
Writing library: libebml v1.4.5 + libmatroska v1.7.1
Cover: Yes
Attachments: cover.jpg / small_cover.jpg

Video
ID: 1
Format: AVC
Format/Info: Advanced Video Codec
Format profile: [email protected]
Format settings: CABAC / 14 Ref Frames
Format settings, CABAC: Yes
Format settings, Reference: 14 frames
Codec ID: V_MPEG4/ISO/AVC
Duration: 1 h 45 min
Bit rate: 1 519 kb/s
Width: 1 024 pixels
Height: 428 pixels
Display aspect ratio: 2.39:1
Frame rate mode: Constant
Frame rate: 24.000 FPS
Color space: YUV
Chroma subsampling: 4:2:0
Bit depth: 8 bits
Scan type: Progressive
Bits/(Pixel*Frame): 0.144
Stream size: 1.12 GiB (77%)
Title: -=DoMiNo=-
Writing library: x264 core 164 r3190 -DoMiNo
Encoding settings: cabac=1 / ref=14 / deblock=1:-2:-1 / analyse=0×3:0×133 / me=umh / subme=10 / psy=1 / psy_rd=1.02:0.03 / mixed_ref=1 / me_range=32 / chroma_me=1 / trellis=2 / 8×8dct=1 / cqm=0 / deadzone=21,11 / fast_pskip=0 / chroma_qp_offset=-3 / threads=13 / lookahead_threads=3 / sliced_threads=0 / nr=0 / decimate=0 / interlaced=0 / bluray_compat=0 / constrained_intra=0 / bframes=10 / b_pyramid=2 / b_adapt=2 / b_bias=0 / direct=3 / weightb=1 / open_gop=0 / weightp=2 / keyint=240 / keyint_min=24 / scenecut=40 / intra_refresh=0 / rc_lookahead=60 / rc=2pass / mbtree=0 / bitrate=1519 / ratetol=1.0 / qcomp=0.65 / qpmin=0 / qpmax=69 / qpstep=4 / cplxblur=20.0 / qblur=0.5 / vbv_maxrate=50000 / vbv_bufsize=62500 / nal_hrd=none / filler=0 / ip_ratio=1.20 / pb_ratio=1.30 / aq=3:0.80
Language: English
Default: Yes
Forced: No
Color range: Limited
Color primaries: BT.709
Transfer characteristics: BT.709
Matrix coefficients: BT.709

Audio
ID: 2
Format: AC-3
Format/Info: Audio Coding 3
Commercial name: Dolby Digital
Codec ID: A_AC3
Duration: 1 h 45 min
Bit rate mode: Constant
Bit rate: 448 kb/s
Channel (s): 6 channels
Channel layout: L R C LFE Ls Rs
Sampling rate: 48.0 kHz
Frame rate: 31.250 FPS (1536 SPF)
Compression mode: Lossy
Stream size: 337 MiB (23%)
Title: DVO -ViruseProject
Language: Russian
Service kind: Complete Main
Default: Yes
Forced: No

Text #1
ID: 3
Format: UTF-8
Codec ID: S_TEXT/UTF8
Codec ID/Info: UTF-8 Plain Text
Duration: 1 h 42 min
Bit rate: 70 b/s
Frame rate: 0.187 FPS
Count of elements: 1156
Stream size: 53.2 KiB (0%)
Title: Full
Language: Russian
Default: No
Forced: No

Text #2
ID: 4
Format: UTF-8
Codec ID: S_TEXT/UTF8
Codec ID/Info: UTF-8 Plain Text
Duration: 1 h 38 min
Bit rate: 46 b/s
Frame rate: 0.192 FPS
Count of elements: 1132
Stream size: 33.0 KiB (0%)
Language: English
Default: No
Forced: No

Menu
00:00:00.000: en: Chapter 01
00:05:50.000: en: Chapter 02
00:11:40.000: en: Chapter 03
00:17:30.000: en: Chapter 04
00:23:20.000: en: Chapter 05
00:29:10.000: en: Chapter 06
00:35:00.000: en: Chapter 07
00:40:50.000: en: Chapter 08
00:46:40.000: en: Chapter 09
00:52:30.000: en: Chapter 10
00:58:20.000: en: Chapter 11
01:04:10.000: en: Chapter 12
01:10:00.000: en: Chapter 13
01:15:50.000: en: Chapter 14
01:21:40.000: en: Chapter 15
01:27:30.000: en: Chapter 16
01:33:20.000: en: Chapter 17
01:39:10.000: en: Chapter 18
01:45:00.000: en: Chapter 19

Другие фильмы
У данной публикации пока нет комментариев.
Будь первым, оставь своё мнение в комментариях!
Информация
Посетители, находящиеся в группе Гости, не могут оставлять комментарии к данной публикации.
Самый популярный релиз недели
Донаты
Мы в соц. сетях / RSS

Лучшие релизы месяца
Лучшие SD недели
Лучшие 720p недели
Лучшие 1080p недели
Лучшие 4K недели
Вы недавно смотрели
Реклама
Последние комментарии
...

rmzshka

15 мая 2024 13:43

...

Andrey_Vladimirovich

13 мая 2024 18:12

...

Robot

13 мая 2024 16:53

...

rmzshka

13 мая 2024 16:21

...

supermehanik

13 мая 2024 02:03

Реклама