+7

Проклятые воды / Night Swim (2024) BDRip 720p от DoMiNo & селезень | P2

Информация о фильме
Название: Проклятые воды
Оригинальное название: Night Swim
Год выпуска: 2024
Жанр: ужасы
Режиссер: Брайс Макгуайр / Bryce McGuire
В ролях: Уайатт Рассел, Керри Кондон, Amélie Hoeferle, Гэвин Уоррен, Джоди Лонг, Эдди Мартинес, Элайджа Дж. Робертс, Ранума Пантаки, Бен Синклер, Элли Араиса

О фильме:
Бывший профессиональный бейсболист Рэй, страдающий от рассеянного склероза, вместе с женой и двумя детьми переезжает в новый дом с бассейном. Супруги решают, что плавание будет полезно и детям, и Рэю в качестве терапии. И впрямь, здоровье мужчины невероятным образом улучшается, вот только без следа исчезает кот семейства, и в бассейне активизируется нечто потустороннее.

Выпущено: США / Atomic Monster, Blumhouse Productions, Government of New South Wales, Australia
Продолжительность: 01:38:22
Перевод: Профессиональный (двухголосый, закадровый) | ViruseProject
Субтитры: Английские (Full, SDH)

Файл
Формат: Matroska
Качество: BDRip 720p
Видео: 1280x536 at 23.976 fps, [email protected], ~5003 kbps
Аудио 1: AC3, 2 ch, ~192 kbps - | Русский | Проклятые воды / Night Swim (2024) BDRip 720p от DoMiNo & селезень | P2
Аудио 2: AC3, 6 ch, ~640 kbps - | Английский |
Формат субтитров: softsub (SRT)

Авторизуйтесь для получения доступа к скачиванию

Нет аккаунта? Регистрация открыта и займёт меньше минуты

Вход Регистрация

General
Unique ID : 218050291064759856409663607736643940189 (0xA40AF55FE38A08FE50EBDEFC61A0EF5D)
Complete name : S:Night.Swim.2024.DUB.BDRip.720p.x264.seleZen.mkv
Format : Matroska
Format version : Version 4
File size : 4.01 GiB
Duration : 1 h 38 min
Overall bit rate : 5 837 kb/s
Frame rate : 23.976 FPS
Movie name : Night.Swim.2024.DUB.BDRip.720p.x264.seleZen
Encoded date : 2024-04-10 13:35:51 UTC
Writing application : mkvmerge v83.0 ('Circle Of Friends') 64-bit
Writing library : libebml v1.4.5 + libmatroska v1.7.1
Cover : Yes
Attachments : cover.jpg / small_cover.jpg

Video
ID : 1
Format : AVC
Format/Info : Advanced Video Codec
Format profile : [email protected]
Format settings : CABAC / 12 Ref Frames
Format settings, CABAC : Yes
Format settings, Reference : 12 frames
Codec ID : V_MPEG4/ISO/AVC
Duration : 1 h 38 min
Bit rate : 5 003 kb/s
Width : 1 280 pixels
Height : 536 pixels
Display aspect ratio : 2.40:1
Frame rate mode : Constant
Frame rate : 23.976 (24000/1001) FPS
Color space : YUV
Chroma subsampling : 4:2:0
Bit depth : 8 bits
Scan type : Progressive
Bits/(Pixel*Frame) : 0.304
Stream size : 3.44 GiB (86%)
Title : -=DoMiNo=-
Writing library : x264 core 164 r3190 -DoMiNo
Encoding settings : cabac=1 / ref=12 / deblock=1:-2:-2 / analyse=0x3:0x133 / me=umh / subme=10 / psy=1 / psy_rd=1.03:0.05 / mixed_ref=1 / me_range=32 / chroma_me=1 / trellis=2 / 8x8dct=1 / cqm=0 / deadzone=21,11 / fast_pskip=0 / chroma_qp_offset=-3 / threads=17 / lookahead_threads=4 / sliced_threads=0 / nr=0 / decimate=0 / interlaced=0 / bluray_compat=0 / constrained_intra=0 / bframes=10 / b_pyramid=2 / b_adapt=2 / b_bias=0 / direct=1 / weightb=1 / open_gop=0 / weightp=2 / keyint=240 / keyint_min=23 / scenecut=40 / intra_refresh=0 / rc_lookahead=60 / rc=crf / mbtree=0 / crf=16.8 / qcomp=0.60 / qpmin=0 / qpmax=69 / qpstep=4 / vbv_maxrate=50000 / vbv_bufsize=62500 / crf_max=0.0 / nal_hrd=none / filler=0 / ip_ratio=1.40 / pb_ratio=1.30 / aq=3:0.80
Language : English
Default : Yes
Forced : No
Color range : Limited
Color primaries : BT.709
Transfer characteristics : BT.709
Matrix coefficients : BT.709

Audio #1
ID : 2
Format : AC-3
Format/Info : Audio Coding 3
Commercial name : Dolby Digital
Codec ID : A_AC3
Duration : 1 h 38 min
Bit rate mode : Constant
Bit rate : 192 kb/s
Channel(s) : 2 channels
Channel layout : L R
Sampling rate : 48.0 kHz
Frame rate : 31.250 FPS (1536 SPF)
Compression mode : Lossy
Stream size : 135 MiB (3%)
Title : DVO -ViruseProject
Language : Russian
Service kind : Complete Main
Default : Yes
Forced : No

Audio #2
ID : 3
Format : AC-3
Format/Info : Audio Coding 3
Commercial name : Dolby Digital
Codec ID : A_AC3
Duration : 1 h 38 min
Bit rate mode : Constant
Bit rate : 640 kb/s
Channel(s) : 6 channels
Channel layout : L R C LFE Ls Rs
Sampling rate : 48.0 kHz
Frame rate : 31.250 FPS (1536 SPF)
Compression mode : Lossy
Stream size : 450 MiB (11%)
Title : Original
Language : English
Service kind : Complete Main
Default : No
Forced : No

Text #1
ID : 4
Format : UTF-8
Codec ID : S_TEXT/UTF8
Codec ID/Info : UTF-8 Plain Text
Duration : 1 h 29 min
Bit rate : 51 b/s
Frame rate : 0.223 FPS
Count of elements : 1191
Stream size : 33.4 KiB (0%)
Title : Full
Language : English
Default : No
Forced : No

Text #2
ID : 5
Format : UTF-8
Codec ID : S_TEXT/UTF8
Codec ID/Info : UTF-8 Plain Text
Duration : 1 h 38 min
Bit rate : 58 b/s
Frame rate : 0.274 FPS
Count of elements : 1613
Stream size : 42.4 KiB (0%)
Title : SDH
Language : English
Default : No
Forced : No

Menu
00:00:00.000 : Глава 1
00:05:59.275 : Глава 2
00:11:54.588 : Глава 3
00:15:48.030 : Глава 4
00:20:34.274 : Глава 5
00:25:23.188 : Глава 6
00:28:42.512 : Глава 7
00:31:47.363 : Глава 8
00:37:04.597 : Глава 9
00:42:48.524 : Глава 10
00:48:10.262 : Глава 11
00:53:50.310 : Глава 12
00:58:20.580 : Глава 13
01:01:29.435 : Глава 14
01:04:43.004 : Глава 15
01:12:37.394 : Глава 16
01:17:05.912 : Глава 17
01:22:42.874 : Глава 18
01:27:17.607 : Глава 19
01:29:24.859 : Глава 20
01:38:21.312 : Глава 21

Другие фильмы
У данной публикации пока нет комментариев.
Будь первым, оставь своё мнение в комментариях!
Информация
Посетители, находящиеся в группе Гости, не могут оставлять комментарии к данной публикации.
Самый популярный релиз недели
Донаты
Мы в соц. сетях / RSS

Лучшие релизы месяца
Лучшие SD недели
Лучшие 720p недели
Лучшие 1080p недели
Лучшие 4K недели
Вы недавно смотрели
Реклама
Последние комментарии
...

rmzshka

15 мая 2024 13:43

...

Andrey_Vladimirovich

13 мая 2024 18:12

...

Robot

13 мая 2024 16:53

...

rmzshka

13 мая 2024 16:21

...

supermehanik

13 мая 2024 02:03

Реклама