+6

Бугимен. Начало легенды / El hombre del saco / The Boogeyman: The Origin of the Myth (2023) BDRip 720p от DoMiNo & селезень | D

Информация о фильме
Название: Бугимен. Начало легенды
Оригинальное название: El hombre del saco / The Boogeyman: The Origin of the Myth
Год выхода: 2023
Жанр: ужасы, комедия, приключения
Режиссер: Анхель Гомес Эрнандес
В ролях: Макарена Гомес, Хавьер Ботет, Иван Ренедо, Клаудия Плейсер, Лорка Гутьеррес Прада, Лукас Блас, Карла Тоус, Гильермо Новильо, Маноло Соло, Карлос Гонсалес Морольон

О фильме:
После смерти главы семьи мать с тремя детьми переезжает в небольшой городок. Вскоре они узнают, что последние несколько месяцев тут при загадочных обстоятельствах пропадают дети.

Страна: Испания, Уругвай
Студия: AF Films, Bowfinger International Pictures, Canary Pictures Vehicles, Esto también pasará
Продолжительность: 01:32:20
Перевод: Дублированный | SoulPro
Субтитры: Русские (Forced, full), английские, испанские

Файл
Формат: Matroska
Качество: BDRip 720p
Видео: 1280x536 at 23.976 fps, [email protected], ~4695 kbps
Аудио 1: AC3, 6 ch, ~384 kbps - | Русский | Бугимен. Начало легенды / El hombre del saco / The Boogeyman: The Origin of the Myth (2023) BDRip 720p от DoMiNo & селезень | D
Аудио 2: E-AC3, 6 ch, ~256 kbps - | Русский |
Аудио 3: AC3, 6 ch, ~640 kbps - | Испанский |
Формат субтитров: softsub (SRT)

Авторизуйтесь для получения доступа к скачиванию

Нет аккаунта? Регистрация открыта и займёт меньше минуты

Вход Регистрация

General
Unique ID: 241804428417741153520813022577662999307 (0xB5E9D6C49BEDDC1F066CE40C0DB9BB0B)
Complete name: T: The.Boogeyman.The.Origin.of.the.Myth.2023.DUB.BDRip.720p.x264.seleZen.mkv
Format: Matroska
Format version: Version 4
File size: 3.85 GiB
Duration: 1 h 33 min
Overall bit rate: 5 922 kb/s
Frame rate: 24.000 FPS
Movie name: The.Boogeyman.The.Origin.of.the.Myth.2023.DUB.BDRip.720p.x264.seleZen
Encoded date: 10.04.2024 08:25:30 UTC
Writing application: mkvmerge v83.0 ('Circle Of Friends') 64-bit
Writing library: libebml v1.4.5 + libmatroska v1.7.1
Cover: Yes
Attachments: cover.jpg / small_cover.jpg

Video
ID: 1
Format: AVC
Format/Info: Advanced Video Codec
Format profile: [email protected]
Format settings: CABAC / 12 Ref Frames
Format settings, CABAC: Yes
Format settings, Reference: 12 frames
Codec ID: V_MPEG4/ISO/AVC
Duration: 1 h 32 min
Bit rate: 4 695 kb/s
Width: 1 280 pixels
Height: 536 pixels
Display aspect ratio: 2.40:1
Frame rate mode: Constant
Frame rate: 24.000 FPS
Color space: YUV
Chroma subsampling: 4:2:0
Bit depth: 8 bits
Scan type: Progressive
Bits/(Pixel*Frame): 0.285
Stream size: 3.03 GiB (79%)
Title: -=DoMiNo=-
Writing library: x264 core 164 r3190 -DoMiNo
Encoding settings: cabac=1 / ref=12 / deblock=1:-2:-2 / analyse=0×3:0×133 / me=umh / subme=10 / psy=1 / psy_rd=1.03:0.05 / mixed_ref=1 / me_range=32 / chroma_me=1 / trellis=2 / 8×8dct=1 / cqm=0 / deadzone=21,11 / fast_pskip=0 / chroma_qp_offset=-3 / threads=17 / lookahead_threads=4 / sliced_threads=0 / nr=0 / decimate=0 / interlaced=0 / bluray_compat=0 / constrained_intra=0 / bframes=10 / b_pyramid=2 / b_adapt=2 / b_bias=0 / direct=1 / weightb=1 / open_gop=0 / weightp=2 / keyint=240 / keyint_min=24 / scenecut=40 / intra_refresh=0 / rc_lookahead=60 / rc=crf / mbtree=0 / crf=15.8 / qcomp=0.60 / qpmin=0 / qpmax=69 / qpstep=4 / vbv_maxrate=50000 / vbv_bufsize=62500 / crf_max=0.0 / nal_hrd=none / filler=0 / ip_ratio=1.40 / pb_ratio=1.30 / aq=3:0.90
Language: English
Default: Yes
Forced: No
Color range: Limited
Color primaries: BT.709
Transfer characteristics: BT.709
Matrix coefficients: BT.709

Audio #1
ID: 2
Format: AC-3
Format/Info: Audio Coding 3
Commercial name: Dolby Digital
Codec ID: A_AC3
Duration: 1 h 31 min
Bit rate mode: Constant
Bit rate: 384 kb/s
Channel (s): 6 channels
Channel layout: L R C LFE Ls Rs
Sampling rate: 48.0 kHz
Frame rate: 31.250 FPS (1536 SPF)
Compression mode: Lossy
Stream size: 253 MiB (6%)
Title: Дублированный | SoulPro
Language: Russian
Service kind: Complete Main
Default: Yes
Forced: No

Audio #2
ID: 3
Format: E-AC-3
Format/Info: Enhanced AC-3
Commercial name: Dolby Digital Plus
Codec ID: A_EAC3
Duration: 1 h 31 min
Bit rate mode: Constant
Bit rate: 256 kb/s
Channel (s): 6 channels
Channel layout: L R C LFE Ls Rs
Sampling rate: 48.0 kHz
Frame rate: 31.250 FPS (1536 SPF)
Compression mode: Lossy
Stream size: 168 MiB (4%)
Title: Дублированный | SoulPro
Language: Russian
Service kind: Complete Main
Default: No
Forced: No

Audio #3
ID: 4
Format: AC-3
Format/Info: Audio Coding 3
Commercial name: Dolby Digital
Codec ID: A_AC3
Duration: 1 h 32 min
Bit rate mode: Constant
Bit rate: 640 kb/s
Channel (s): 6 channels
Channel layout: L R C LFE Ls Rs
Sampling rate: 48.0 kHz
Frame rate: 31.250 FPS (1536 SPF)
Compression mode: Lossy
Stream size: 423 MiB (11%)
Title: Original
Language: Spanish
Service kind: Complete Main
Default: No
Forced: No

Text #1
ID: 5
Format: UTF-8
Codec ID: S_TEXT/UTF8
Codec ID/Info: UTF-8 Plain Text
Duration: 1 h 25 min
Bit rate: 1 b/s
Frame rate: 0.002 FPS
Count of elements: 11
Stream size: 992 Bytes (0%)
Title: Forced
Language: Russian
Default: No
Forced: No

Text #2
ID: 6
Format: UTF-8
Codec ID: S_TEXT/UTF8
Codec ID/Info: UTF-8 Plain Text
Duration: 1 h 25 min
Bit rate: 74 b/s
Frame rate: 0.188 FPS
Count of elements: 963
Stream size: 46.3 KiB (0%)
Title: Full
Language: Russian
Default: No
Forced: No

Text #3
ID: 7
Format: UTF-8
Codec ID: S_TEXT/UTF8
Codec ID/Info: UTF-8 Plain Text
Duration: 1 h 25 min
Bit rate: 39 b/s
Frame rate: 0.201 FPS
Count of elements: 1036
Stream size: 25.1 KiB (0%)
Language: English
Default: No
Forced: No

Text #4
ID: 8
Format: UTF-8
Codec ID: S_TEXT/UTF8
Codec ID/Info: UTF-8 Plain Text
Duration: 1 h 32 min
Bit rate: 48 b/s
Frame rate: 0.236 FPS
Count of elements: 1306
Stream size: 32.6 KiB (0%)
Language: Spanish
Default: No
Forced: No

Menu
00:00:00.000: Chapter 01
00:08:34.042: Chapter 02
00:17:18.250: Chapter 03
00:27:58.750: Chapter 04
00:40:53.208: Chapter 05
00:59:18.292: Chapter 06
01:20:54.542: Chapter 07
01:26:44.958: Chapter 08
01:27:47.458: Chapter 09
01:31:58.000: Chapter 10

Другие фильмы
У данной публикации пока нет комментариев.
Будь первым, оставь своё мнение в комментариях!
Информация
Посетители, находящиеся в группе Гости, не могут оставлять комментарии к данной публикации.
Самый популярный релиз недели
Донаты
Мы в соц. сетях / RSS

Лучшие релизы месяца
Лучшие SD недели
Лучшие 720p недели
Лучшие 1080p недели
Лучшие 4K недели
Вы недавно смотрели
Реклама
Последние комментарии
...

rmzshka

15 мая 2024 13:43

...

Andrey_Vladimirovich

13 мая 2024 18:12

...

Robot

13 мая 2024 16:53

...

rmzshka

13 мая 2024 16:21

...

supermehanik

13 мая 2024 02:03

Реклама