+6

Бугимен. Начало легенды / El hombre del saco / The Boogeyman: The Origin of the Myth (2023) BDRip 1080p от селезень | D

Информация о фильме
Название: Бугимен. Начало легенды
Оригинальное название: El hombre del saco
Год выхода: 2023
Жанр: ужасы, комедия, приключения
Режиссер: Анхель Гомес Эрнандес
В ролях: Макарена Гомес, Хавьер Ботет, Иван Ренедо, Клаудия Плейсер, Лорка Гутьеррес Прада, Лукас Блас, Карла Тоус, Гильермо Новильо, Маноло Соло, Карлос Гонсалес Морольон

О фильме: После смерти главы семьи мать с тремя детьми переезжает в небольшой городок. Вскоре они узнают, что последние несколько месяцев тут при загадочных обстоятельствах пропадают дети.

Страна: Испания, Уругвай
Студия: AF Films, Bowfinger International Pictures, Canary Pictures Vehicles, Esto también pasará
Продолжительность: 01:32:20
Перевод: Дублированный | SoulPro

Качество: BDRip 1080p
Видео: MPEG-4 AVC, 1920x804, 10.0 Mbit/s, 24.000 fps
Аудио #01: 48 kHz, AC3, 5.1, 384 Kbps | Дублированный | SoulPro | RUS |Бугимен. Начало легенды / El hombre del saco / The Boogeyman: The Origin of the Myth (2023) BDRip 1080p от селезень | D
Аудио #02: 48 kHz, E-AC3, 5.1, 256 Kbps | Дублированный | SoulPro | RUS |
Аудио #03: 48 kHz, AC3, 5.1, 640 Kbps | Оригинал | SPA |
Субтитры: Русские (Forced, full), английские, испанские

Бугимен. Начало легенды / El hombre del saco / The Boogeyman: The Origin of the Myth (2023) BDRip 1080p от селезень | D

Авторизуйтесь для получения доступа к скачиванию

Нет аккаунта? Регистрация открыта и займёт меньше минуты

Вход Регистрация

General
Unique ID : 209655582974886686955548291039444362795 (0x9DBA324F85F8E3D1FD9FF7910868662B)
Complete name : H:\VideoH\2\The.Boogeyman.The.Origin.of.the.Myth.2023.BDRip.1080p.seleZen.mkv
Format : Matroska
Format version : Version 4
File size : 7.27 GiB
Duration : 1 h 33 min
Overall bit rate : 11.2 Mb/s
Frame rate : 24.000 FPS
Movie name : El hombre del saco AKA The Boogeyman: The Origin of the Myth [2023] from seleZen
Encoded date : 2024-04-10 00:56:58 UTC
Writing application : mkvmerge v80.0 ('Roundabout') 64-bit
Writing library : libebml v1.4.4 + libmatroska v1.7.1

Video
ID : 1
Format : AVC
Format/Info : Advanced Video Codec
Format profile : [email protected]
Format settings : CABAC / 5 Ref Frames
Format settings, CABAC : Yes
Format settings, Reference : 5 frames
Codec ID : V_MPEG4/ISO/AVC
Duration : 1 h 32 min
Bit rate : 10 000 kb/s
Width : 1 920 pixels
Height : 804 pixels
Display aspect ratio : 2.39:1
Frame rate mode : Constant
Frame rate : 24.000 FPS
Color space : YUV
Chroma subsampling : 4:2:0
Bit depth : 8 bits
Scan type : Progressive
Bits/(Pixel*Frame) : 0.270
Stream size : 6.45 GiB (89%)
Writing library : x264 core 164 r3164 seleZen
Encoding settings : cabac=1 / ref=5 / deblock=1:-2:-2 / analyse=0x3:0x133 / me=umh / subme=11 / psy=1 / psy_rd=1.03:0.02 / mixed_ref=1 / me_range=48 / chroma_me=1 / trellis=2 / 8x8dct=1 / cqm=0 / deadzone=21,11 / fast_pskip=0 / chroma_qp_offset=-3 / threads=25 / lookahead_threads=6 / sliced_threads=0 / nr=0 / decimate=0 / interlaced=0 / bluray_compat=0 / constrained_intra=0 / bframes=10 / b_pyramid=2 / b_adapt=2 / b_bias=0 / direct=3 / weightb=1 / open_gop=0 / weightp=2 / keyint=240 / keyint_min=23 / scenecut=40 / intra_refresh=0 / rc_lookahead=60 / rc=2pass / mbtree=0 / bitrate=10000 / ratetol=1.0 / qcomp=0.60 / qpmin=0 / qpmax=51 / qpstep=4 / cplxblur=20.0 / qblur=0.5 / vbv_maxrate=50000 / vbv_bufsize=62500 / nal_hrd=none / filler=0 / ip_ratio=1.40 / pb_ratio=1.30 / aq=3:0.80
Language : English
Default : Yes
Forced : No

Audio #1
ID : 2
Format : AC-3
Format/Info : Audio Coding 3
Commercial name : Dolby Digital
Codec ID : A_AC3
Duration : 1 h 31 min
Bit rate mode : Constant
Bit rate : 384 kb/s
Channel(s) : 6 channels
Channel layout : L R C LFE Ls Rs
Sampling rate : 48.0 kHz
Frame rate : 31.250 FPS (1536 SPF)
Compression mode : Lossy
Stream size : 253 MiB (3%)
Title : Dub
Language : Russian
Service kind : Complete Main
Default : Yes
Forced : No

Audio #2
ID : 3
Format : E-AC-3
Format/Info : Enhanced AC-3
Commercial name : Dolby Digital Plus
Codec ID : A_EAC3
Duration : 1 h 31 min
Bit rate mode : Constant
Bit rate : 256 kb/s
Channel(s) : 6 channels
Channel layout : L R C LFE Ls Rs
Sampling rate : 48.0 kHz
Frame rate : 31.250 FPS (1536 SPF)
Compression mode : Lossy
Stream size : 168 MiB (2%)
Title : Dub
Language : Russian
Service kind : Complete Main
Default : No
Forced : No

Audio #3
ID : 4
Format : AC-3
Format/Info : Audio Coding 3
Commercial name : Dolby Digital
Codec ID : A_AC3
Duration : 1 h 32 min
Bit rate mode : Constant
Bit rate : 640 kb/s
Channel(s) : 6 channels
Channel layout : L R C LFE Ls Rs
Sampling rate : 48.0 kHz
Frame rate : 31.250 FPS (1536 SPF)
Compression mode : Lossy
Stream size : 423 MiB (6%)
Title : Original
Language : Spanish
Service kind : Complete Main
Default : No
Forced : No

Text #1
ID : 5
Format : UTF-8
Codec ID : S_TEXT/UTF8
Codec ID/Info : UTF-8 Plain Text
Duration : 1 h 25 min
Bit rate : 1 b/s
Frame rate : 0.002 FPS
Count of elements : 11
Stream size : 992 Bytes (0%)
Title : Forced
Language : Russian
Default : Yes
Forced : No

Text #2
ID : 6
Format : UTF-8
Codec ID : S_TEXT/UTF8
Codec ID/Info : UTF-8 Plain Text
Duration : 1 h 25 min
Bit rate : 74 b/s
Frame rate : 0.188 FPS
Count of elements : 963
Stream size : 46.3 KiB (0%)
Title : Full
Language : Russian
Default : No
Forced : No

Text #3
ID : 7
Format : UTF-8
Codec ID : S_TEXT/UTF8
Codec ID/Info : UTF-8 Plain Text
Duration : 1 h 25 min
Bit rate : 39 b/s
Frame rate : 0.201 FPS
Count of elements : 1036
Stream size : 25.1 KiB (0%)
Language : English
Default : No
Forced : No

Text #4
ID : 8
Format : UTF-8
Codec ID : S_TEXT/UTF8
Codec ID/Info : UTF-8 Plain Text
Duration : 1 h 32 min
Bit rate : 48 b/s
Frame rate : 0.236 FPS
Count of elements : 1306
Stream size : 32.6 KiB (0%)
Language : Spanish
Default : No
Forced : No

Menu
00:00:00.000 : Chapter 01
00:08:34.042 : Chapter 02
00:17:18.250 : Chapter 03
00:27:58.750 : Chapter 04
00:40:53.208 : Chapter 05
00:59:18.292 : Chapter 06
01:20:54.542 : Chapter 07
01:26:44.958 : Chapter 08
01:27:47.458 : Chapter 09
01:31:58.000 : Chapter 10

Другие фильмы
У данной публикации пока нет комментариев.
Будь первым, оставь своё мнение в комментариях!
Информация
Посетители, находящиеся в группе Гости, не могут оставлять комментарии к данной публикации.
Самый популярный релиз недели
Донаты
Мы в соц. сетях / RSS

Лучшие релизы месяца
Лучшие SD недели
Лучшие 720p недели
Лучшие 1080p недели
Лучшие 4K недели
Вы недавно смотрели
Реклама
Последние комментарии
...

rmzshka

15 мая 2024 13:43

...

Andrey_Vladimirovich

13 мая 2024 18:12

...

Robot

13 мая 2024 16:53

...

rmzshka

13 мая 2024 16:21

...

supermehanik

13 мая 2024 02:03

Реклама