+9

Кунг-фу Панда 4 / Kung Fu Panda 4 (2024) WEB-DLRip 720p от DoMiNo & селезень | D, P

Информация о фильме
Название: Кунг-фу Панда 4
Оригинальное название: Kung Fu Panda 4
Год выхода: 2024
Жанр: Mультфильм, фэнтези, боевик, комедия, приключения, семейный
Режиссер: Майк Митчелл, Стефани Стайн
В ролях: Джек Блэк, Аквафина, Виола Дэвис, Дастин Хоффман, Брайан Крэнстон, Джеймс Хун, Иэн Макшейн, Ке Хюи Куан, Ронни Чиэн, Лори Тань Чинн

О фильме:
Продолжение приключений легендарного Воина Дракона, его верных друзей и наставника.

Страна: США, Китай
Студия: DreamWorks Animation, DreamWorks SKG, Universal Pictures
Продолжительность: 01:35:13
Перевод 1: Дублированный (неофициальный) | Red Head Sound (Панду По озвучивает Михаил Галустян)
Перевод 2: Профессиональный (многоголосый, закадровый) | Jaskier
Субтитры: Русские (2x Full), английские

Файл
Формат: Matroska
Качество: WEB-DLRip 720p [Исх.Kung.Fu.Panda.4.2024.2160p.AMZN.WEB-DL.DDP5.1.Atmos.H.265-FLUX]
Видео: 1280x534 at 23.976 fps, [email protected], ~2705 kbps
Аудио 1: AC3, 6 ch, ~640 kbps - | Русский | Кунг-фу Панда 4 / Kung Fu Panda 4 (2024) WEB-DLRip 720p от DoMiNo & селезень | D, P | Red Head Sound
Аудио 2: AC3, 6 ch, ~384 kbps - | Русский | | Jaskier
Аудио 3: AC3, 6 ch, ~448 kbps - | Английский |
Формат субтитров: softsub (SRT)

Авторизуйтесь для получения доступа к скачиванию

Нет аккаунта? Регистрация открыта и займёт меньше минуты

Вход Регистрация

General
Unique ID : 264058311798992565812603182614130292221 (0xC6A7C7EE07B90BB80A607DF2623D75FD)
Complete name : T:Kung.Fu.Panda.4.2024.D.P.WEB-DLRip.720p.x264.seleZen.mkv
Format : Matroska
Format version : Version 4
File size : 2.76 GiB
Duration : 1 h 35 min
Overall bit rate : 4 156 kb/s
Frame rate : 23.976 FPS
Movie name : Kung.Fu.Panda.4.2024.D.P.WEB-DLRip.720p.x264.seleZen
Encoded date : 2024-04-13 19:00:40 UTC
Writing application : mkvmerge v83.0 ('Circle Of Friends') 64-bit
Writing library : libebml v1.4.5 + libmatroska v1.7.1
Cover : Yes
Attachments : cover.jpg / small_cover.jpg

Video
ID : 1
Format : AVC
Format/Info : Advanced Video Codec
Format profile : [email protected]
Format settings : CABAC / 12 Ref Frames
Format settings, CABAC : Yes
Format settings, Reference : 12 frames
Codec ID : V_MPEG4/ISO/AVC
Duration : 1 h 35 min
Bit rate : 2 705 kb/s
Width : 1 280 pixels
Height : 534 pixels
Display aspect ratio : 2.40:1
Frame rate mode : Constant
Frame rate : 23.976 (24000/1001) FPS
Color space : YUV
Chroma subsampling : 4:2:0
Bit depth : 8 bits
Scan type : Progressive
Bits/(Pixel*Frame) : 0.165
Stream size : 1.80 GiB (65%)
Title : -=DoMiNo=-
Writing library : x264 core 164 r3190 -DoMiNo
Encoding settings : cabac=1 / ref=12 / deblock=1:-2:-2 / analyse=0x3:0x133 / me=umh / subme=10 / psy=1 / psy_rd=1.00:0.15 / mixed_ref=1 / me_range=32 / chroma_me=1 / trellis=2 / 8x8dct=1 / cqm=0 / deadzone=21,11 / fast_pskip=0 / chroma_qp_offset=-3 / threads=17 / lookahead_threads=4 / sliced_threads=0 / nr=0 / decimate=0 / interlaced=0 / bluray_compat=0 / constrained_intra=0 / bframes=10 / b_pyramid=2 / b_adapt=2 / b_bias=0 / direct=1 / weightb=1 / open_gop=0 / weightp=2 / keyint=240 / keyint_min=23 / scenecut=40 / intra_refresh=0 / rc_lookahead=60 / rc=crf / mbtree=0 / crf=18.0 / qcomp=0.60 / qpmin=0 / qpmax=69 / qpstep=4 / vbv_maxrate=50000 / vbv_bufsize=62500 / crf_max=0.0 / nal_hrd=none / filler=0 / ip_ratio=1.40 / pb_ratio=1.30 / aq=2:0.90
Language : English
Default : Yes
Forced : No
Color range : Limited
Color primaries : BT.709
Transfer characteristics : BT.709
Matrix coefficients : BT.709

Audio #1
ID : 2
Format : AC-3
Format/Info : Audio Coding 3
Commercial name : Dolby Digital
Codec ID : A_AC3
Duration : 1 h 33 min
Bit rate mode : Constant
Bit rate : 640 kb/s
Channel(s) : 6 channels
Channel layout : L R C LFE Ls Rs
Sampling rate : 48.0 kHz
Frame rate : 31.250 FPS (1536 SPF)
Compression mode : Lossy
Stream size : 429 MiB (15%)
Title : Dub -Red Head Sound
Language : Russian
Service kind : Complete Main
Default : Yes
Forced : No
AC3_metadata cmixlev : -3.0 dB
surmixlev : -3 dB

Audio #2
ID : 3
Format : AC-3
Format/Info : Audio Coding 3
Commercial name : Dolby Digital
Codec ID : A_AC3
Duration : 1 h 33 min
Bit rate mode : Constant
Bit rate : 384 kb/s
Channel(s) : 6 channels
Channel layout : L R C LFE Ls Rs
Sampling rate : 48.0 kHz
Frame rate : 31.250 FPS (1536 SPF)
Compression mode : Lossy
Stream size : 257 MiB (9%)
Title : MVO -Jaskier
Language : Russian
Service kind : Complete Main
Default : No
Forced : No
AC3_metadata cmixlev : -4.5 dB
surmixlev : -6 dB

Audio #3
ID : 4
Format : AC-3
Format/Info : Audio Coding 3
Commercial name : Dolby Digital
Codec ID : A_AC3
Duration : 1 h 33 min
Bit rate mode : Constant
Bit rate : 448 kb/s
Channel(s) : 6 channels
Channel layout : L R C LFE Ls Rs
Sampling rate : 48.0 kHz
Frame rate : 31.250 FPS (1536 SPF)
Compression mode : Lossy
Stream size : 300 MiB (11%)
Title : Original
Language : English
Service kind : Complete Main
Default : No
Forced : No
AC3_metadata cmixlev : -4.5 dB
surmixlev : -6 dB

Text #1
ID : 5
Format : UTF-8
Codec ID : S_TEXT/UTF8
Codec ID/Info : UTF-8 Plain Text
Duration : 1 h 26 min
Bit rate : 129 b/s
Frame rate : 0.365 FPS
Count of elements : 1891
Stream size : 82.1 KiB (0%)
Title : Full v1
Language : Russian
Default : No
Forced : No

Text #2
ID : 6
Format : UTF-8
Codec ID : S_TEXT/UTF8
Codec ID/Info : UTF-8 Plain Text
Duration : 1 h 27 min
Bit rate : 127 b/s
Frame rate : 0.282 FPS
Count of elements : 1488
Stream size : 82.1 KiB (0%)
Title : Full v2
Language : Russian
Default : No
Forced : No

Text #3
ID : 7
Format : UTF-8
Codec ID : S_TEXT/UTF8
Codec ID/Info : UTF-8 Plain Text
Duration : 1 h 26 min
Bit rate : 69 b/s
Frame rate : 0.262 FPS
Count of elements : 1361
Stream size : 43.7 KiB (0%)
Title : Full
Language : English
Default : No
Forced : No

Text #4
ID : 8
Format : UTF-8
Codec ID : S_TEXT/UTF8
Codec ID/Info : UTF-8 Plain Text
Duration : 1 h 26 min
Bit rate : 79 b/s
Frame rate : 0.325 FPS
Count of elements : 1697
Stream size : 50.7 KiB (0%)
Title : SDH
Language : English
Default : No
Forced : No

Menu
00:00:00.000 : en:Chapter 01
00:02:37.073 : en:Chapter 02
00:06:21.881 : en:Chapter 03
00:12:24.911 : en:Chapter 04
00:19:27.584 : en:Chapter 05
00:25:28.737 : en:Chapter 06
00:33:32.512 : en:Chapter 07
00:40:16.708 : en:Chapter 08
00:47:39.818 : en:Chapter 09
00:52:12.340 : en:Chapter 10
00:58:14.619 : en:Chapter 11
01:04:06.596 : en:Chapter 12
01:12:17.420 : en:Chapter 13
01:16:51.903 : en:Chapter 14
01:22:25.945 : en:Chapter 15
01:24:48.880 : en:Chapter 16

Другие фильмы
У данной публикации пока нет комментариев.
Будь первым, оставь своё мнение в комментариях!
Информация
Посетители, находящиеся в группе Гости, не могут оставлять комментарии к данной публикации.
Самый популярный релиз недели
Донаты
Мы в соц. сетях / RSS

Лучшие релизы месяца
Лучшие SD недели
Лучшие 720p недели
Лучшие 1080p недели
Лучшие 4K недели
Вы недавно смотрели
Реклама
Последние комментарии
...

rmzshka

15 мая 2024 13:43

...

Andrey_Vladimirovich

13 мая 2024 18:12

...

Robot

13 мая 2024 16:53

...

rmzshka

13 мая 2024 16:21

...

supermehanik

13 мая 2024 02:03

Реклама