+3

Маленькие прелестницы / Little Darlings (1980) UHD BDRemux 2160p от селезень | 4K | HDR | P

Информация о фильме
Название: Маленькие прелестницы
Оригинальное название: Little Darlings
Год выхода: 1980
Жанр: драма, комедия
Режиссер: Рон Максвелл
В ролях: Татум О'Нил, Кристи МакНикол, Арманд Ассанте, Мэтт Диллон, Маргарет Блай, Николас Костер, Криста Эрриксон, Алекса Кенин, Эбби Блюстоун, Синтия Никсон

О фильме: Две пятнадцатилетние девочки встречаются в летнем лагере и заключают пари, кто первый из них потеряет девственность. Феррис положила глаз на Гари, тренера по плаванью, а Энджел решила соблазнить юного Рэнди. Казалось бы. Все уже решено, однако вскоре жизнь вносит в планы девушек свои поправки...

Страна: США
Студия: Stephen Friedman/Kings Road Productions
Продолжительность: 01:34:38
Перевод: Профессиональный многоголосый | 5 канал СПб

Качество: BDRemux 2160p
Видео: 3840x2160 at 23.976 fps, MPEG-H HEVC HDR Video, 79900 kbps avg
Аудио #01: 48 kHz, AC3, 2.0, 192 Kbps | Профессиональный многоголосый | 5 канал СПб | RUS |Маленькие прелестницы / Little Darlings (1980) UHD BDRemux 2160p от селезень | 4K | HDR | P
Аудио #02: 48 kHz, FLAC, 2.0, 740 Kbps | Оригинал | ENG |
Субтитры: Английские

Маленькие прелестницы / Little Darlings (1980) UHD BDRemux 2160p от селезень | 4K | HDR | P

Авторизуйтесь для получения доступа к скачиванию

Нет аккаунта? Регистрация открыта и займёт меньше минуты

Вход Регистрация

General
Unique ID : 304293455374861764864756804059883108594 (0xE4ECC9AA8EB78BD280DB731CE5E7F8F2)
Complete name : \\192.168.1.215\download\Little.Darlings.1980.BDREMUX.2160p.HDR.seleZen.mkv
Format : Matroska
Format version : Version 4
File size : 53.5 GiB
Duration : 1 h 34 min
Overall bit rate mode : Variable
Overall bit rate : 80.9 Mb/s
Frame rate : 23.976 FPS
Movie name : Little.Darlings.1980.from.seleZen
Encoded date : 2024-03-26 06:59:40 UTC
Writing application : mkvmerge v80.0 ('Roundabout') 64-bit
Writing library : libebml v1.4.4 + libmatroska v1.7.1

Video
ID : 1
Format : HEVC
Format/Info : High Efficiency Video Coding
Format profile : Main [email protected]@High
HDR format : SMPTE ST 2086, HDR10 compatible
Codec ID : V_MPEGH/ISO/HEVC
Duration : 1 h 34 min
Bit rate : 79.9 Mb/s
Width : 3 840 pixels
Height : 2 160 pixels
Display aspect ratio : 16:9
Frame rate mode : Constant
Frame rate : 23.976 (24000/1001) FPS
Color space : YUV
Chroma subsampling : 4:2:0 (Type 2)
Bit depth : 10 bits
Bits/(Pixel*Frame) : 0.402
Stream size : 52.9 GiB (99%)
Language : English
Default : Yes
Forced : No
Color range : Limited
Color primaries : BT.2020
Transfer characteristics : PQ
Matrix coefficients : BT.2020 non-constant
Mastering display color pri : BT.2020
Mastering display luminance : min: 0.0001 cd/m2, max: 4000 cd/m2
Maximum Content Light Level : 1000 cd/m2
Maximum Frame-Average Light : 400 cd/m2

Audio #1
ID : 2
Format : AC-3
Format/Info : Audio Coding 3
Commercial name : Dolby Digital
Codec ID : A_AC3
Duration : 1 h 34 min
Bit rate mode : Constant
Bit rate : 192 kb/s
Channel(s) : 2 channels
Channel layout : L R
Sampling rate : 48.0 kHz
Frame rate : 31.250 FPS (1536 SPF)
Compression mode : Lossy
Stream size : 130 MiB (0%)
Title : MVO | 5 канал СПб
Language : Russian
Service kind : Complete Main
Default : Yes
Forced : No

Audio #2
ID : 3
Format : FLAC
Format/Info : Free Lossless Audio Codec
Codec ID : A_FLAC
Duration : 1 h 34 min
Bit rate mode : Variable
Bit rate : 740 kb/s
Channel(s) : 2 channels
Channel layout : L R
Sampling rate : 48.0 kHz
Frame rate : 11.719 FPS (4096 SPF)
Bit depth : 24 bits
Compression mode : Lossless
Stream size : 501 MiB (1%)
Title : Original
Writing library : libFLAC 1.4.3 (2023-06-23)
Language : English
Default : No
Forced : No
MD5 of the unencoded conten : BEF5B95D44DC3AD46F0837F71135E46F

Text
ID : 4
Format : UTF-8
Codec ID : S_TEXT/UTF8
Codec ID/Info : UTF-8 Plain Text
Duration : 1 h 34 min
Bit rate : 53 b/s
Frame rate : 0.227 FPS
Count of elements : 1282
Stream size : 36.9 KiB (0%)
Title : SDH
Language : English
Default : No
Forced : No

Menu
00:00:00.000 : en:Chapter 01
00:10:13.112 : en:Chapter 02
00:20:23.973 : en:Chapter 03
00:30:30.871 : en:Chapter 04
00:43:27.605 : en:Chapter 05
00:59:25.896 : en:Chapter 06
01:10:33.563 : en:Chapter 07
01:23:38.305 : en:Chapter 08
01:34:37.964 : en:Chapter 09

Другие фильмы
У данной публикации пока нет комментариев.
Будь первым, оставь своё мнение в комментариях!
Информация
Посетители, находящиеся в группе Гости, не могут оставлять комментарии к данной публикации.
Самый популярный релиз недели
Донаты
Мы в соц. сетях / RSS

Лучшие релизы месяца
Лучшие SD недели
Лучшие 720p недели
Лучшие 1080p недели
Лучшие 4K недели
Вы недавно смотрели
Реклама
Последние комментарии
...

rmzshka

15 мая 2024 13:43

...

Andrey_Vladimirovich

13 мая 2024 18:12

...

Robot

13 мая 2024 16:53

...

rmzshka

13 мая 2024 16:21

...

supermehanik

13 мая 2024 02:03

Реклама