+4

Заражение / Contagion (2011) UHD BDRemux 2160p от селезень | 4K | HDR | D | Лицензия

Информация о фильме
Название: Заражение
Оригинальное название: Contagion
Год выхода: 2011
Жанр: триллер, драма
Режиссер: Стивен Содерберг
В ролях: Мэтт Дэймон, Лоренс Фишбёрн, Джуд Лоу, Кейт Уинслет, Марион Котийяр, Гвинет Пэлтроу, Брайан Крэнстон, Дженнифер Эль, Санаа Лэтэн, Эллиотт Гулд

О фильме: Международная организация врачей совместно с Центром по контролю и профилактике заболеваний США пытается помешать распространению смертельного вируса.

Страна: США, ОАЭ
Студия: Digital Image Associates, Double Feature Films, Imagenation Abu Dhabi FZ, Participant Media, Warner Bros.
Продолжительность: 01:46:24
Перевод: Дублированный | Лицензия

Качество: BDRemux 2160p
Видео: 3840x2160 at 23.976 fps, MPEG-H HEVC HDR Video, 58200 kbps avg
Аудио #01: 48 kHz, AC3, 5.1, 640 Kbps | Дублированный | RUS |Заражение / Contagion (2011) UHD BDRemux 2160p от селезень | 4K | HDR | D | Лицензия
Аудио #02: 48 kHz, DTS-HD MA, 5.1, 3632 Kbps | Оригинал | ENG |
Субтитры: Русские, Английские

Заражение / Contagion (2011) UHD BDRemux 2160p от селезень | 4K | HDR | D | Лицензия

Авторизуйтесь для получения доступа к скачиванию

Нет аккаунта? Регистрация открыта и займёт меньше минуты

Вход Регистрация

General
Unique ID : 236809095696787487683677513170717940125 (0xB227C5D988F5395D28584AC22C76999D)
Complete name : \\192.168.1.215\download\Contagion.2011.BDREMUX.2160p.HDR.seleZen.mkv
Format : Matroska
Format version : Version 4
File size : 46.5 GiB
Duration : 1 h 46 min
Overall bit rate mode : Variable
Overall bit rate : 62.5 Mb/s
Frame rate : 23.976 FPS
Movie name : Contagion (2011) from seleZen
Encoded date : 2024-03-26 07:11:56 UTC
Writing application : mkvmerge v80.0 ('Roundabout') 64-bit
Writing library : libebml v1.4.4 + libmatroska v1.7.1

Video
ID : 1
Format : HEVC
Format/Info : High Efficiency Video Coding
Format profile : Main [email protected]@High
HDR format : SMPTE ST 2086, HDR10 compatible
Codec ID : V_MPEGH/ISO/HEVC
Duration : 1 h 46 min
Bit rate : 58.2 Mb/s
Width : 3 840 pixels
Height : 2 160 pixels
Display aspect ratio : 16:9
Frame rate mode : Constant
Frame rate : 23.976 (24000/1001) FPS
Color space : YUV
Chroma subsampling : 4:2:0 (Type 2)
Bit depth : 10 bits
Bits/(Pixel*Frame) : 0.293
Stream size : 43.3 GiB (93%)
Writing library : ATEME Titan File 3.9.12 (4.9.12.4)
Language : English
Default : Yes
Forced : No
Color range : Limited
Color primaries : BT.2020
Transfer characteristics : PQ
Matrix coefficients : BT.2020 non-constant
Mastering display color pri : Display P3
Mastering display luminance : min: 0.0001 cd/m2, max: 1000 cd/m2
Maximum Content Light Level : 994 cd/m2
Maximum Frame-Average Light : 118 cd/m2

Audio #1
ID : 2
Format : AC-3
Format/Info : Audio Coding 3
Commercial name : Dolby Digital
Codec ID : A_AC3
Duration : 1 h 46 min
Bit rate mode : Constant
Bit rate : 640 kb/s
Channel(s) : 6 channels
Channel layout : L R C LFE Ls Rs
Sampling rate : 48.0 kHz
Frame rate : 31.250 FPS (1536 SPF)
Compression mode : Lossy
Stream size : 487 MiB (1%)
Title : Dub
Language : Russian
Service kind : Complete Main
Default : Yes
Forced : No

Audio #2
ID : 3
Format : DTS XLL
Format/Info : Digital Theater Systems
Commercial name : DTS-HD Master Audio
Codec ID : A_DTS
Duration : 1 h 46 min
Bit rate mode : Variable
Bit rate : 3 632 kb/s
Channel(s) : 6 channels
Channel layout : C L R Ls Rs LFE
Sampling rate : 48.0 kHz
Frame rate : 93.750 FPS (512 SPF)
Bit depth : 24 bits
Compression mode : Lossless
Stream size : 2.70 GiB (6%)
Title : Original
Language : English
Default : No
Forced : No

Text #1
ID : 4
Format : UTF-8
Codec ID : S_TEXT/UTF8
Codec ID/Info : UTF-8 Plain Text
Duration : 1 h 40 min
Bit rate : 2 b/s
Frame rate : 0.012 FPS
Count of elements : 70
Stream size : 2.07 KiB (0%)
Title : Forced
Language : Russian
Default : Yes
Forced : No

Text #2
ID : 5
Format : UTF-8
Codec ID : S_TEXT/UTF8
Codec ID/Info : UTF-8 Plain Text
Duration : 1 h 40 min
Bit rate : 90 b/s
Frame rate : 0.210 FPS
Count of elements : 1266
Stream size : 66.8 KiB (0%)
Title : Full
Language : Russian
Default : No
Forced : No

Text #3
ID : 6
Format : UTF-8
Codec ID : S_TEXT/UTF8
Codec ID/Info : UTF-8 Plain Text
Duration : 1 h 39 min
Bit rate : 71 b/s
Frame rate : 0.218 FPS
Count of elements : 1297
Stream size : 52.0 KiB (0%)
Title : Full
Language : English (US)
Default : No
Forced : No

Text #4
ID : 7
Format : UTF-8
Codec ID : S_TEXT/UTF8
Codec ID/Info : UTF-8 Plain Text
Duration : 1 h 40 min
Bit rate : 75 b/s
Frame rate : 0.231 FPS
Count of elements : 1394
Stream size : 55.7 KiB (0%)
Title : SDH
Language : English (US)
Default : No
Forced : No

Menu
00:00:00.000 : en:Chapter 1
00:04:32.981 : en:Chapter 2
00:07:26.404 : en:Chapter 3
00:11:08.584 : en:Chapter 4
00:14:20.442 : en:Chapter 5
00:16:00.668 : en:Chapter 6
00:17:44.438 : en:Chapter 7
00:20:15.088 : en:Chapter 8
00:22:23.258 : en:Chapter 9
00:24:11.533 : en:Chapter 10
00:26:55.447 : en:Chapter 11
00:30:31.663 : en:Chapter 12
00:34:16.721 : en:Chapter 13
00:36:34.650 : en:Chapter 14
00:38:40.401 : en:Chapter 15
00:41:27.860 : en:Chapter 16
00:42:50.693 : en:Chapter 17
00:46:54.812 : en:Chapter 18
00:49:49.027 : en:Chapter 19
00:52:00.575 : en:Chapter 20
00:53:57.233 : en:Chapter 21
00:57:30.030 : en:Chapter 22
01:00:53.858 : en:Chapter 23
01:03:22.382 : en:Chapter 24
01:07:42.016 : en:Chapter 25
01:10:20.883 : en:Chapter 26
01:12:33.849 : en:Chapter 27
01:15:34.947 : en:Chapter 28
01:18:09.894 : en:Chapter 29
01:22:33.657 : en:Chapter 30
01:25:23.034 : en:Chapter 31
01:31:27.982 : en:Chapter 32
01:34:34.877 : en:Chapter 33
01:36:10.181 : en:Chapter 34
01:41:27.998 : en:End Credits

Другие фильмы
У данной публикации пока нет комментариев.
Будь первым, оставь своё мнение в комментариях!
Информация
Посетители, находящиеся в группе Гости, не могут оставлять комментарии к данной публикации.
Самый популярный релиз недели
Донаты
Мы в соц. сетях / RSS

Лучшие релизы месяца
Лучшие SD недели
Лучшие 720p недели
Лучшие 1080p недели
Лучшие 4K недели
Вы недавно смотрели
Реклама
Последние комментарии
...

rmzshka

15 мая 2024 13:43

...

Andrey_Vladimirovich

13 мая 2024 18:12

...

Robot

13 мая 2024 16:53

...

rmzshka

13 мая 2024 16:21

...

supermehanik

13 мая 2024 02:03

Реклама