+3

Всё ещё Элис / Still Alice (2014) UHD BDRemux 2160p от селезень | 4K | HDR | Dolby Vision Profile 8 | P | Лицензия

Информация о фильме
Название: Всё ещё Элис
Оригинальное название: Still Alice
Год выхода: 2014
Жанр: драма
Режиссер: Ричард Глацер, Уош Уэстмоленд
В ролях: Джулианна Мур, Алек Болдуин, Кристен Стюарт, Кейт Босворт, Шэйн МакРей, Хантер Пэрриш, Сет Гиллиам, Стефан Канкен, Эрин Дарк, Дэниэл Джерролл

О фильме: Элис Хаулэнд - известная профессор лингвистики. Она счастлива в браке, у нее трое взрослых детей. Но все меняется, когда однажды она начинает забывать слова.

Страна: США, Великобритания, Франция
Студия: Backup Films, Big Indie Pictures, BSM Studio, Killer Films, Lutzus-Brown, Shriver Films
Продолжительность: 01:41:16
Перевод: Профессиональный многоголосый | Лицензия

Качество: BDRemux 2160p
Видео: 3840x2160 at 23.976 fps, MPEG-H HEVC HDR Video, 59600 kbps avg
Аудио #01: 48 kHz, AC3, 5.1, 640 Kbps | Профессиональный многоголосый | RUS |Всё ещё Элис / Still Alice (2014) UHD BDRemux 2160p от селезень | 4K | HDR | Dolby Vision Profile 8 | P | Лицензия
Аудио #02: 48 kHz, DTS-HD MA, 5.1, 2114 Kbps | Оригинал | ENG |
Субтитры: Русские, Английские

Всё ещё Элис / Still Alice (2014) UHD BDRemux 2160p от селезень | 4K | HDR | Dolby Vision Profile 8 | P | Лицензия

Авторизуйтесь для получения доступа к скачиванию

Нет аккаунта? Регистрация открыта и займёт меньше минуты

Вход Регистрация

General
Unique ID : 70048456374870726717085487304348633423 (0x34B2D78B488F9AA690205C9F5B55894F)
Complete name : H:\VideoH\Still.Alice.2014.BDREMUX.2160p.HDR.DVP8.seleZen.mkv
Format : Matroska
Format version : Version 4
File size : 44.1 GiB
Duration : 1 h 41 min
Overall bit rate mode : Variable
Overall bit rate : 62.3 Mb/s
Frame rate : 23.976 FPS
Movie name : Still Alice 2014 from seleZen
Encoded date : 2024-04-08 21:50:02 UTC
Writing application : mkvmerge v80.0 ('Roundabout') 64-bit
Writing library : libebml v1.4.4 + libmatroska v1.7.1

Video
ID : 1
ID in the original source m : 4117 (0x1015)
Format : HEVC
Format/Info : High Efficiency Video Coding
Format profile : Main [email protected]@High
HDR format : Dolby Vision, Version 1.0, dvhe.08.06, BL+RPU, Blu-ray compatible / SMPTE ST 2086, HDR10 compatible
Codec ID : V_MPEGH/ISO/HEVC
Duration : 1 h 41 min
Bit rate : 59.6 Mb/s
Width : 3 840 pixels
Height : 2 160 pixels
Display aspect ratio : 16:9
Frame rate mode : Constant
Frame rate : 23.976 (24000/1001) FPS
Color space : YUV
Chroma subsampling : 4:2:0 (Type 2)
Bit depth : 10 bits
Bits/(Pixel*Frame) : 0.300
Stream size : 42.1 GiB (96%)
Language : English
Default : No
Forced : No
Color range : Limited
Color primaries : BT.2020
Transfer characteristics : PQ
Matrix coefficients : BT.2020 non-constant
Mastering display color pri : Display P3
Mastering display luminance : min: 0.0001 cd/m2, max: 1000 cd/m2
Maximum Content Light Level : 513 cd/m2
Maximum Frame-Average Light : 265 cd/m2
Original source medium : Blu-ray

Audio #1
ID : 2
Format : AC-3
Format/Info : Audio Coding 3
Commercial name : Dolby Digital
Codec ID : A_AC3
Duration : 1 h 41 min
Bit rate mode : Constant
Bit rate : 640 kb/s
Channel(s) : 6 channels
Channel layout : L R C LFE Ls Rs
Sampling rate : 48.0 kHz
Frame rate : 31.250 FPS (1536 SPF)
Compression mode : Lossy
Stream size : 463 MiB (1%)
Title : MVO
Language : Russian
Service kind : Complete Main
Default : Yes
Forced : No

Audio #2
ID : 3
Format : DTS XLL
Format/Info : Digital Theater Systems
Commercial name : DTS-HD Master Audio
Codec ID : A_DTS
Duration : 1 h 41 min
Bit rate mode : Variable
Bit rate : 2 114 kb/s
Channel(s) : 6 channels
Channel layout : C L R Ls Rs LFE
Sampling rate : 48.0 kHz
Frame rate : 93.750 FPS (512 SPF)
Bit depth : 16 bits
Compression mode : Lossless
Stream size : 1.50 GiB (3%)
Language : English
Default : No
Forced : No

Text #1
ID : 4
Format : UTF-8
Codec ID : S_TEXT/UTF8
Codec ID/Info : UTF-8 Plain Text
Duration : 1 h 34 min
Bit rate : 113 b/s
Frame rate : 0.215 FPS
Count of elements : 1220
Stream size : 78.9 KiB (0%)
Language : Russian
Default : No
Forced : No

Text #2
ID : 5
Format : UTF-8
Codec ID : S_TEXT/UTF8
Codec ID/Info : UTF-8 Plain Text
Duration : 1 h 34 min
Bit rate : 68 b/s
Frame rate : 0.220 FPS
Count of elements : 1243
Stream size : 47.4 KiB (0%)
Language : English
Default : No
Forced : No

Menu
00:00:00.000 : en:Глава 01
00:04:40.697 : en:Глава 02
00:11:03.246 : en:Глава 03
00:15:37.895 : en:Глава 04
00:21:34.710 : en:Глава 05
00:28:51.063 : en:Глава 06
00:36:54.546 : en:Глава 07
00:43:54.841 : en:Глава 08
00:49:39.518 : en:Глава 09
00:58:20.247 : en:Глава 10
01:05:08.863 : en:Глава 11
01:11:36.167 : en:Глава 12
01:16:39.053 : en:Глава 13
01:20:02.172 : en:Глава 14
01:27:08.849 : en:Глава 15
01:30:08.945 : en:Глава 16

Другие фильмы
У данной публикации пока нет комментариев.
Будь первым, оставь своё мнение в комментариях!
Информация
Посетители, находящиеся в группе Гости, не могут оставлять комментарии к данной публикации.
Самый популярный релиз недели
Донаты
Мы в соц. сетях / RSS

Лучшие релизы месяца
Лучшие SD недели
Лучшие 720p недели
Лучшие 1080p недели
Лучшие 4K недели
Вы недавно смотрели
Реклама
Последние комментарии
...

rmzshka

15 мая 2024 13:43

...

Andrey_Vladimirovich

13 мая 2024 18:12

...

Robot

13 мая 2024 16:53

...

rmzshka

13 мая 2024 16:21

...

supermehanik

13 мая 2024 02:03

Реклама