+4

Карающая длань / Red Right Hand (2024) BDRemux 1080p от селезень | D

Информация о фильме
Название: Карающая длань
Оригинальное название: Red Right Hand
Год выхода: 2024
Жанр: боевик, триллер
Режиссер: Эшом Нелмс, Иэн Нелмс
В ролях: Орландо Блум, Энди Макдауэлл, Гаррет Диллахант, Джеймс Лэфферти, Брайан Джерати, Александра Парк, Чепел Оукс, Мо, Джереми Рэчфорд, Скотт Хейз

О фильме: Кэш живет скромной и мирной жизнью, помогает мужу покойной сестры воспитывать племянницу Саванну и управляться с фермой в небольшом городишке в Аппалачах. Но когда Кошка, глава местной банды и садистка, начинает угрожать его семье, Кэш понимает, что готов на все ради их защиты. И чем дольше длится противостояние, затягивая Кэша в водоворот насилия, тем сильнее стирается граница между добром и злом.

Страна: США
Студия: Asbury Park Productions, Studio 507, Sweet Tomato Films, Traction
Продолжительность: 01:51:52
Перевод: Дублированный | | Мосфильм-Мастер (Кинопоиск HD)

Качество: BDRemux 1080p
Видео: MPEG-4 AVC, 1920x1080, 32800 Kbit/s, 23.976 fps
Аудио #01: 48 kHz, AC3, 5.1, 448 Kbps | Дублированный | Мосфильм-Мастер | RUS |Карающая длань / Red Right Hand (2024) BDRemux 1080p от селезень | D
Аудио #02: 48 kHz, E-AC3, 5.1, 448 Kbps | Дублированный | Мосфильм-Мастер | RUS |
Аудио #03: 48 kHz, DTS-HD MA, 5.1, 3583 Kbps | Оригинал | ENG |
Субтитры: Русские (Forced, full)

Карающая длань / Red Right Hand (2024) BDRemux 1080p от селезень | D

Авторизуйтесь для получения доступа к скачиванию

Нет аккаунта? Регистрация открыта и займёт меньше минуты

Вход Регистрация

General
Unique ID : 11108046621307531014165435382669198045 (0x85B54FB6820C0C0AA850090E99F42DD)
Complete name : H:\VideoH\Red.Right.Hand.2024.BDREMUX.1080p.seleZen.mkv
Format : Matroska
Format version : Version 4
File size : 29.1 GiB
Duration : 1 h 51 min
Overall bit rate mode : Variable
Overall bit rate : 37.3 Mb/s
Frame rate : 23.976 FPS
Movie name : Red Right Hand (2024) from seleZen
Encoded date : 2024-04-09 12:20:48 UTC
Writing application : mkvmerge v80.0 ('Roundabout') 64-bit
Writing library : libebml v1.4.4 + libmatroska v1.7.1

Video
ID : 1
Format : AVC
Format/Info : Advanced Video Codec
Format profile : [email protected]
Format settings : CABAC / 4 Ref Frames
Format settings, CABAC : Yes
Format settings, Reference : 4 frames
Format settings, Slice coun : 4 slices per frame
Codec ID : V_MPEG4/ISO/AVC
Duration : 1 h 51 min
Bit rate mode : Variable
Bit rate : 32.8 Mb/s
Maximum bit rate : 37.0 Mb/s
Width : 1 920 pixels
Height : 1 080 pixels
Display aspect ratio : 16:9
Frame rate mode : Constant
Frame rate : 23.976 (24000/1001) FPS
Color space : YUV
Chroma subsampling : 4:2:0
Bit depth : 8 bits
Scan type : Progressive
Bits/(Pixel*Frame) : 0.660
Time code of first frame : 00:00:00:00
Stream size : 25.6 GiB (88%)
Language : English
Default : Yes
Forced : No

Audio #1
ID : 2
Format : AC-3
Format/Info : Audio Coding 3
Commercial name : Dolby Digital
Codec ID : A_AC3
Duration : 1 h 51 min
Bit rate mode : Constant
Bit rate : 448 kb/s
Channel(s) : 6 channels
Channel layout : L R C LFE Ls Rs
Sampling rate : 48.0 kHz
Frame rate : 31.250 FPS (1536 SPF)
Compression mode : Lossy
Stream size : 358 MiB (1%)
Title : Dub
Language : Russian
Service kind : Complete Main
Default : Yes
Forced : No

Audio #2
ID : 3
Format : E-AC-3
Format/Info : Enhanced AC-3
Commercial name : Dolby Digital Plus
Codec ID : A_EAC3
Duration : 1 h 51 min
Bit rate mode : Constant
Bit rate : 448 kb/s
Channel(s) : 6 channels
Channel layout : L R C LFE Ls Rs
Sampling rate : 48.0 kHz
Frame rate : 31.250 FPS (1536 SPF)
Compression mode : Lossy
Stream size : 358 MiB (1%)
Title : Dub
Language : Russian
Service kind : Complete Main
Default : No
Forced : No

Audio #3
ID : 4
Format : DTS XLL
Format/Info : Digital Theater Systems
Commercial name : DTS-HD Master Audio
Codec ID : A_DTS
Duration : 1 h 51 min
Bit rate mode : Variable
Bit rate : 3 583 kb/s
Channel(s) : 6 channels
Channel layout : C L R Ls Rs LFE
Sampling rate : 48.0 kHz
Frame rate : 93.750 FPS (512 SPF)
Bit depth : 24 bits
Compression mode : Lossless
Stream size : 2.80 GiB (10%)
Title : Original
Language : English
Default : No
Forced : No

Text #1
ID : 5
Format : UTF-8
Codec ID : S_TEXT/UTF8
Codec ID/Info : UTF-8 Plain Text
Duration : 1 h 47 min
Bit rate : 3 b/s
Frame rate : 0.007 FPS
Count of elements : 42
Stream size : 2.51 KiB (0%)
Title : Forced
Language : Russian
Default : Yes
Forced : No

Text #2
ID : 6
Format : UTF-8
Codec ID : S_TEXT/UTF8
Codec ID/Info : UTF-8 Plain Text
Duration : 1 h 47 min
Bit rate : 78 b/s
Frame rate : 0.234 FPS
Count of elements : 1505
Stream size : 61.6 KiB (0%)
Title : Full
Language : Russian
Default : No
Forced : No

Text #3
ID : 7
Format : UTF-8
Codec ID : S_TEXT/UTF8
Codec ID/Info : UTF-8 Plain Text
Duration : 1 h 50 min
Bit rate : 56 b/s
Frame rate : 0.257 FPS
Count of elements : 1707
Stream size : 45.5 KiB (0%)
Title : Full
Language : English
Default : No
Forced : No

Text #4
ID : 8
Format : UTF-8
Codec ID : S_TEXT/UTF8
Codec ID/Info : UTF-8 Plain Text
Duration : 1 h 51 min
Bit rate : 59 b/s
Frame rate : 0.265 FPS
Count of elements : 1771
Stream size : 48.8 KiB (0%)
Title : SDH
Language : English
Default : No
Forced : No

Menu
00:00:00.000 : en:Chapter 01
00:10:28.628 : en:Chapter 02
00:23:40.794 : en:Chapter 03
00:33:49.110 : en:Chapter 04
00:44:08.271 : en:Chapter 05
00:56:17.416 : en:Chapter 06
01:07:51.067 : en:Chapter 07
01:19:07.326 : en:Chapter 08
01:31:15.553 : en:Chapter 09
01:45:46.757 : en:Chapter 10

Другие фильмы
Комментарии:

...
-=DoMiNo=- 5 мая 2024 22:54
0

Судя по медиаинфо - на месте.

...
Chitatel-1993 4 мая 2024 23:09
0

А где английские сабы?

Информация
Посетители, находящиеся в группе Гости, не могут оставлять комментарии к данной публикации.
Самый популярный релиз недели
Донаты
Мы в соц. сетях / RSS

Лучшие релизы месяца
Лучшие SD недели
Лучшие 720p недели
Лучшие 1080p недели
Лучшие 4K недели
Вы недавно смотрели
Реклама
Последние комментарии
...

Bonzo

14 июня 2024 14:52

...

rmzshka

13 июня 2024 17:48

...

rmzshka

13 июня 2024 12:24

...

LisNick

13 июня 2024 08:45

...

SkySpirit

8 июня 2024 19:54

Реклама