+7

Кунг-фу Панда 4 / Kung Fu Panda 4 (2024) WEB-DL 1080p от селезень | D

Информация о фильме
Название: Кунг-фу Панда 4
Оригинальное название: Kung Fu Panda 4
Год выхода: 2024
Жанр: мультфильм, фэнтези, боевик, комедия, приключения, семейный
Режиссер: Майк Митчелл, Стефани Стайн
В ролях: Джек Блэк, Аквафина, Виола Дэвис, Дастин Хоффман, Брайан Крэнстон, Джеймс Хун, Иэн Макшейн, Ке Хюи Куан, Ронни Чиэн, Лори Тань Чинн

О фильме: Продолжение приключений легендарного Воина Дракона, его верных друзей и наставника.

Страна: США, Китай
Студия: DreamWorks Animation, DreamWorks SKG, Universal Pictures
Продолжительность: 01:35:13
Перевод: Дублированный | Red Head Sound

Качество: WEB-DL 1080p
Видео: MPEG-4 AVC, 1920x800, 6228 Kbit/s, 23.976 fps
Аудио #01: 48 kHz, AC3, 5.1, 448 Kbps | Дублированный | Red Head Sound | RUS |Кунг-фу Панда 4 / Kung Fu Panda 4 (2024) WEB-DL 1080p от селезень | D
Аудио #02: 48 kHz, E-AC3+Atmos, 5.1, 768 Kbps | Оригинал | ENG |
Субтитры: Русские (Full), английские

Кунг-фу Панда 4 / Kung Fu Panda 4 (2024) WEB-DL 1080p от селезень | D

Авторизуйтесь для получения доступа к скачиванию

Нет аккаунта? Регистрация открыта и займёт меньше минуты

Вход Регистрация

General
Unique ID : 314265774927104759021778866924232424693 (0xEC6D62FB060E70D557A3900811C0BCF5)
Complete name : H:\VideoH\Kung.Fu.Panda.4.2024.AMZN.WEB-DL.1080p.seleZen.mkv
Format : Matroska
Format version : Version 4
File size : 4.94 GiB
Duration : 1 h 35 min
Overall bit rate : 7 427 kb/s
Frame rate : 23.976 FPS
Movie name : Kung.Fu.Panda.4.2024.from.seleZen
Encoded date : 2024-04-09 11:46:35 UTC
Writing application : mkvmerge v80.0 ('Roundabout') 64-bit
Writing library : libebml v1.4.4 + libmatroska v1.7.1

Video
ID : 1
Format : AVC
Format/Info : Advanced Video Codec
Format profile : High@L4
Format settings : CABAC / 4 Ref Frames
Format settings, CABAC : Yes
Format settings, Reference : 4 frames
Codec ID : V_MPEG4/ISO/AVC
Duration : 1 h 35 min
Bit rate mode : Constant
Bit rate : 6 228 kb/s
Nominal bit rate : 10 000 kb/s
Width : 1 920 pixels
Height : 800 pixels
Display aspect ratio : 2.40:1
Frame rate mode : Constant
Frame rate : 23.976 (24000/1001) FPS
Color space : YUV
Chroma subsampling : 4:2:0
Bit depth : 8 bits
Scan type : Progressive
Bits/(Pixel*Frame) : 0.169
Stream size : 4.14 GiB (84%)
Language : English (US)
Default : Yes
Forced : No
Color range : Limited
Color primaries : BT.709
Transfer characteristics : BT.709
Matrix coefficients : BT.709

Audio #1
ID : 2
Format : AC-3
Format/Info : Audio Coding 3
Commercial name : Dolby Digital
Codec ID : A_AC3
Duration : 1 h 33 min
Bit rate mode : Constant
Bit rate : 448 kb/s
Channel(s) : 6 channels
Channel layout : L R C LFE Ls Rs
Sampling rate : 48.0 kHz
Frame rate : 31.250 FPS (1536 SPF)
Compression mode : Lossy
Stream size : 300 MiB (6%)
Title : Dub_Red Head Sound
Language : Russian
Service kind : Complete Main
Default : Yes
Forced : No

Audio #2
ID : 3
Format : E-AC-3 JOC
Format/Info : Enhanced AC-3 with Joint Object Coding
Commercial name : Dolby Digital Plus with Dolby Atmos
Codec ID : A_EAC3
Duration : 1 h 33 min
Bit rate mode : Constant
Bit rate : 768 kb/s
Channel(s) : 6 channels
Channel layout : L R C LFE Ls Rs
Sampling rate : 48.0 kHz
Frame rate : 31.250 FPS (1536 SPF)
Compression mode : Lossy
Delay relative to video : 17 ms
Stream size : 514 MiB (10%)
Title : Original
Language : English
Service kind : Complete Main
Default : No
Forced : No
Complexity index : 16
Number of dynamic objects : 15
Bed channel count : 1 channel
Bed channel configuration : LFE

Text #1
ID : 4
Format : UTF-8
Codec ID : S_TEXT/UTF8
Codec ID/Info : UTF-8 Plain Text
Duration : 1 h 27 min
Bit rate : 127 b/s
Frame rate : 0.282 FPS
Count of elements : 1488
Stream size : 82.1 KiB (0%)
Title : Full
Language : Russian
Default : No
Forced : No

Text #2
ID : 5
Format : UTF-8
Codec ID : S_TEXT/UTF8
Codec ID/Info : UTF-8 Plain Text
Duration : 1 h 26 min
Bit rate : 69 b/s
Frame rate : 0.262 FPS
Count of elements : 1361
Stream size : 43.7 KiB (0%)
Title : Full
Language : English
Default : No
Forced : No

Text #3
ID : 6
Format : UTF-8
Codec ID : S_TEXT/UTF8
Codec ID/Info : UTF-8 Plain Text
Duration : 1 h 26 min
Bit rate : 79 b/s
Frame rate : 0.325 FPS
Count of elements : 1697
Stream size : 50.7 KiB (0%)
Title : SDH
Language : English
Default : No
Forced : No

Menu
00:00:00.000 : en:Chapter 01
00:02:37.073 : en:Chapter 02
00:06:21.881 : en:Chapter 03
00:12:24.911 : en:Chapter 04
00:19:27.584 : en:Chapter 05
00:25:28.737 : en:Chapter 06
00:33:32.512 : en:Chapter 07
00:40:16.708 : en:Chapter 08
00:47:39.818 : en:Chapter 09
00:52:12.340 : en:Chapter 10
00:58:14.619 : en:Chapter 11
01:04:06.596 : en:Chapter 12
01:12:17.420 : en:Chapter 13
01:16:51.903 : en:Chapter 14
01:22:25.945 : en:Chapter 15
01:24:48.880 : en:Chapter 16

Другие фильмы
У данной публикации пока нет комментариев.
Будь первым, оставь своё мнение в комментариях!
Информация
Посетители, находящиеся в группе Гости, не могут оставлять комментарии к данной публикации.
Самый популярный релиз недели
Донаты
Мы в соц. сетях / RSS

Лучшие релизы месяца
Лучшие SD недели
Лучшие 720p недели
Лучшие 1080p недели
Лучшие 4K недели
Вы недавно смотрели
Реклама
Последние комментарии
...

rmzshka

15 мая 2024 13:43

...

Andrey_Vladimirovich

13 мая 2024 18:12

...

Robot

13 мая 2024 16:53

...

rmzshka

13 мая 2024 16:21

...

supermehanik

13 мая 2024 02:03

Реклама