+6

Территория зла / Land of Bad (2024) WEB-DLRip от toxics & селезень | D

Информация о фильме
Название: Территория зла
Оригинальное название: Land of Bad
Год выхода: 2024
Жанр: боевик, криминал
Режиссер: Уильям Юбэнк / William Eubank
В ролях: Лиам Хемсворт, Рассел Кроу, Люк Хемсворт, Рики Уиттл, Майло Вентимилья, Chika Ikogwe, Дэниэл Макферсон, Роберт Рабия, Джек Финстерер, Chris Masters Mah и др.

О фильме:
Рипер, оператор беспилотника, оказывает воздушную поддержку команде, которая попадает в ловушку, оставшись без оружия. Теперь их единственным средством связи и шансом на выживание становится беспилотник. «Территория зла» — экшен-триллер с Расселом Кроу и Лиамом Хемсвортом.

Страна: США
Студия: Volition Media Partners, Broken Open Pictures, Highland Film Group (HFG)
Продолжительность: 01:53:30
Перевод: Дублированный | Мосфильм-Мастер

Файл
Формат: AVI
Качество: WEB-DLRip
Видео: XviD, 720x304, 1388 Kbps , 23.976 fps
Аудио: AC3, 48 KHz, 5.1 ch, 448 kbps | Русский | Дублированный | Мосфильм-Мастер | RUS | Территория зла / Land of Bad (2024) WEB-DLRip от toxics & селезень | D
Субтитры: Русcкие (форсированные)

Территория зла / Land of Bad (2024) WEB-DLRip от toxics & селезень | D

Авторизуйтесь для получения доступа к скачиванию

Нет аккаунта? Регистрация открыта и займёт меньше минуты

Вход Регистрация

Общее
Полное имя : D:\Land.of.Bad.2024.D.AMZN.WEB-DLRip.[toxics.and.seleZen]\Land.of.Bad.2024.D.AMZN.WEB-DLRip.[toxics.and.seleZen].avi
Формат : AVI
Формат/Информация : Audio Video Interleave
Настройки формата : BitmapInfoHeader / WaveFormatEx
Размер файла : 1,46 Гбайт
Продолжительность : 1 ч. 53 м.
Общий поток : 1 845 Кбит/сек
Частота кадров : 23,976 кадра/сек
Программа кодирования : VirtualDubMod 1.5.10.3 | www.virtualdub-fr.org || (build 2550/release)
Библиотека кодирования : VirtualDubMod build 2550/release

Видео
Идентификатор : 0
Формат : MPEG-4 Visual
Профиль формата : Advanced Simple@L5
Настройки формата : BVOP2 / Custom Matrix
Параметр BVOP формата : 2
Параметр QPel формата : Нет
Параметр GMC формата : Без точки перехода
Параметр матрицы формата : Выборочная
Идентификатор кодека : XVID
Идентификатор кодека/Подсказка : XviD
Продолжительность : 1 ч. 53 м.
Битрейт : 1 388 Кбит/сек
Ширина : 720 пикселей
Высота : 304 пикселя
Соотношение сторон : 2,35:1
Частота кадров : 23,976 (24000/1001) кадра/сек
Цветовое пространство : YUV
Субдискретизация насыщенности : 4:2:0
Битовая глубина : 8 бит
Тип развёртки : Прогрессивная
Метод сжатия : С потерями
Бит/(Пиксели*Кадры) : 0.264
Размер потока : 1,10 Гбайт (75%)
Библиотека кодирования : XviD 73

Аудио
Идентификатор : 1
Формат : AC-3
Формат/Информация : Audio Coding 3
Коммерческое название : Dolby Digital
Идентификатор кодека : 2000
Продолжительность : 1 ч. 53 м.
Вид битрейта : Постоянный
Битрейт : 448 Кбит/сек
Каналы : 6 каналов
Channel layout : L R C LFE Ls Rs
Частота : 48,0 КГц
Частота кадров : 31,250 кадров/сек (1536 SPF)
Метод сжатия : С потерями
Размер потока : 363 Мбайт (24%)
Выравнивание : Разделение по промежуткам
Продолжительность промежутка : 42 мс. (1,00 видеокадр)
Время предзагрузки промежутка : 500 мс.
Service kind : Complete Main

Другие фильмы
У данной публикации пока нет комментариев.
Будь первым, оставь своё мнение в комментариях!
Информация
Посетители, находящиеся в группе Гости, не могут оставлять комментарии к данной публикации.
Самый популярный релиз недели
Донаты
Мы в соц. сетях / RSS

Лучшие релизы месяца
Лучшие SD недели
Лучшие 720p недели
Лучшие 1080p недели
Лучшие 4K недели
Вы недавно смотрели
Реклама
Последние комментарии
...

rmzshka

15 мая 2024 13:43

...

Andrey_Vladimirovich

13 мая 2024 18:12

...

Robot

13 мая 2024 16:53

...

rmzshka

13 мая 2024 16:21

...

supermehanik

13 мая 2024 02:03

Реклама