+3

Королевство зверей / Le règne animal / The Animal Kingdom (2023) BDRemux 1080p от селезень | D, P2

Информация о фильме
Название: Королевство зверей
Оригинальное название: Le règne animal
Год выхода: 2023
Жанр: ужасы, фантастика, драма, детектив, приключения
Режиссер: Тома Кайе
В ролях: Ромен Дюрис, Поль Киршер, Адель Экзаркопулос, Том Мерсье, Билли Блэйн, Ксавьер Обер, Саадиа Бентайеб, Габриэль Кабальеро, Илиана Хелифа, Поль Мугуруза

О фильме: Мир охвачен волной неизвестной мутации, которая превращает людей в зверей. Опасны ли мутанты? Как передаётся заболевание?
Франсуа делает всё, чтобы спасти свою заражённую жену Лану. Когда её отправляют в больничный филиал на юге Франции, он с 16-летним сыном Эмилем едет следом. В результате аварии некоторые из существ, среди которых может быть жена Франсуа, исчезают. Отец с сыном начинают поиски Ланы, которые навсегда изменят их жизнь.


Страна: Франция, Бельгия
Студия: Nord-Ouest Productions, Studio Canal
Продолжительность: 02:07:17
Перевод(ы):
#1: Дублированный | Мосфильм-Мастер
#2: Профессиональный двухголосый | ViruseProject


Качество: BDRemux 1080p
Видео: MPEG-4 AVC, 1920x1080, 29.7 Mbit/s, 24.000 fps
Аудио #01: 48 kHz, AC3, 5.1, 640 Kbps | Дублированный | Мосфильм-Мастер | RUS |Королевство зверей / Le règne animal / The Animal Kingdom (2023) BDRemux 1080p от селезень | D, P2
Аудио #02: 48 kHz, AC3, 5.1, 640 Kbps | Профессиональный двухголосый | ViruseProject | RUS |
Аудио #03: 48 kHz, DTS-HD MA, 5.1, 3832 Kbps | Оригинал | FRE |
Субтитры: Русские (Forced, full), английские, французские

Королевство зверей / Le règne animal / The Animal Kingdom (2023) BDRemux 1080p от селезень | D, P2

Авторизуйтесь для получения доступа к скачиванию

Нет аккаунта? Регистрация открыта и займёт меньше минуты

Вход Регистрация

General
Unique ID : 311918770759123551395201483858471676674 (0xEAA95EBDB4173C82A311B43698D9EB02)
Complete name : H:\VideoH\The.Animal.Kingdom.2023.BDREMUX.1080p.seleZen.mkv
Format : Matroska
Format version : Version 4
File size : 30.9 GiB
Duration : 2 h 7 min
Overall bit rate mode : Variable
Overall bit rate : 34.8 Mb/s
Frame rate : 24.000 FPS
Movie name : Le règne animal AKA The Animal Kingdom [2023] from seleZen
Encoded date : 2024-04-05 11:30:53 UTC
Writing application : mkvmerge v80.0 ('Roundabout') 64-bit
Writing library : libebml v1.4.4 + libmatroska v1.7.1

Video
ID : 1
Format : AVC
Format/Info : Advanced Video Codec
Format profile : [email protected]
Format settings : CABAC / 4 Ref Frames
Format settings, CABAC : Yes
Format settings, Reference : 4 frames
Format settings, Slice coun : 4 slices per frame
Codec ID : V_MPEG4/ISO/AVC
Duration : 2 h 7 min
Bit rate mode : Variable
Bit rate : 29.7 Mb/s
Maximum bit rate : 38.0 Mb/s
Width : 1 920 pixels
Height : 1 080 pixels
Display aspect ratio : 16:9
Frame rate mode : Constant
Frame rate : 24.000 FPS
Color space : YUV
Chroma subsampling : 4:2:0
Bit depth : 8 bits
Scan type : Progressive
Bits/(Pixel*Frame) : 0.596
Time code of first frame : 09:59:59:00
Stream size : 26.4 GiB (85%)
Language : English
Default : No
Forced : No

Audio #1
ID : 2
Format : AC-3
Format/Info : Audio Coding 3
Commercial name : Dolby Digital
Codec ID : A_AC3
Duration : 2 h 7 min
Bit rate mode : Constant
Bit rate : 640 kb/s
Channel(s) : 6 channels
Channel layout : L R C LFE Ls Rs
Sampling rate : 48.0 kHz
Frame rate : 31.250 FPS (1536 SPF)
Compression mode : Lossy
Stream size : 583 MiB (2%)
Title : DUB_Mosfilm Master
Language : Russian
Service kind : Complete Main
Default : Yes
Forced : Yes

Audio #2
ID : 3
Format : AC-3
Format/Info : Audio Coding 3
Commercial name : Dolby Digital
Codec ID : A_AC3
Duration : 2 h 7 min
Bit rate mode : Constant
Bit rate : 640 kb/s
Channel(s) : 6 channels
Channel layout : L R C LFE Ls Rs
Sampling rate : 48.0 kHz
Frame rate : 31.250 FPS (1536 SPF)
Compression mode : Lossy
Stream size : 583 MiB (2%)
Title : DVO_ViruseProject
Language : Russian
Service kind : Complete Main
Default : Yes
Forced : No

Audio #3
ID : 4
Format : DTS XLL
Format/Info : Digital Theater Systems
Commercial name : DTS-HD Master Audio
Codec ID : A_DTS
Duration : 2 h 7 min
Bit rate mode : Variable
Bit rate : 3 832 kb/s
Channel(s) : 6 channels
Channel layout : C L R Ls Rs LFE
Sampling rate : 48.0 kHz
Frame rate : 93.750 FPS (512 SPF)
Bit depth : 24 bits
Compression mode : Lossless
Stream size : 3.41 GiB (11%)
Title : Original
Language : French
Default : No
Forced : No

Text #1
ID : 5
Format : UTF-8
Codec ID : S_TEXT/UTF8
Codec ID/Info : UTF-8 Plain Text
Duration : 13 min 28 s
Bit rate : 16 b/s
Frame rate : 0.025 FPS
Count of elements : 20
Stream size : 1.58 KiB (0%)
Title : Forced
Language : Russian
Default : No
Forced : Yes

Text #2
ID : 6
Format : UTF-8
Codec ID : S_TEXT/UTF8
Codec ID/Info : UTF-8 Plain Text
Duration : 2 h 1 min
Bit rate : 54 b/s
Frame rate : 0.122 FPS
Count of elements : 889
Stream size : 48.8 KiB (0%)
Title : Full
Language : Russian
Default : No
Forced : No

Text #3
ID : 7
Format : UTF-8
Codec ID : S_TEXT/UTF8
Codec ID/Info : UTF-8 Plain Text
Duration : 2 h 6 min
Bit rate : 43 b/s
Frame rate : 0.214 FPS
Count of elements : 1627
Stream size : 39.9 KiB (0%)
Language : French
Default : No
Forced : No

Text #4
ID : 8
Format : UTF-8
Codec ID : S_TEXT/UTF8
Codec ID/Info : UTF-8 Plain Text
Duration : 1 h 59 min
Bit rate : 27 b/s
Frame rate : 0.104 FPS
Count of elements : 744
Stream size : 24.5 KiB (0%)
Language : English
Default : No
Forced : No

Menu
00:00:00.000 : fr:Chapter 01
00:11:15.375 : fr:Chapter 02
00:22:36.166 : fr:Chapter 03
00:34:02.541 : fr:Chapter 04
00:43:20.083 : fr:Chapter 05
00:53:25.625 : fr:Chapter 06
01:06:53.750 : fr:Chapter 07
01:16:21.375 : fr:Chapter 08
01:27:23.791 : fr:Chapter 09
01:36:55.458 : fr:Chapter 10
01:50:22.041 : fr:Chapter 11
02:01:19.750 : fr:Chapter 12

Другие фильмы
У данной публикации пока нет комментариев.
Будь первым, оставь своё мнение в комментариях!
Информация
Посетители, находящиеся в группе Гости, не могут оставлять комментарии к данной публикации.
Самый популярный релиз недели
Донаты
Мы в соц. сетях / RSS

Лучшие релизы месяца
Лучшие SD недели
Лучшие 720p недели
Лучшие 1080p недели
Лучшие 4K недели
Вы недавно смотрели
Реклама
Последние комментарии
...

Bonzo

14 июня 2024 14:52

...

rmzshka

13 июня 2024 17:48

...

rmzshka

13 июня 2024 12:24

...

LisNick

13 июня 2024 08:45

...

SkySpirit

8 июня 2024 19:54

Реклама