+3

Убийство в Белом доме / Murder at 1600 (1997) WEB-DLRip от toxics & селезень | D, A

Информация
Название: Убийство в Белом доме
Оригинальное название: Murder at 1600
Год выхода: 1997
Жанр: Боевик, триллер, драма, криминал, детектив
Режиссер: Дуайт Х. Литтл / Dwight H. Little
В ролях: Уэсли Снайпс, Дайан Лэйн, Дэниэл Бензали, Дэннис Миллер, Алан Алда, Ронни Кокс, Дайан Бэйкер, Тейт Донован, Харрис Юлин, Том Райт

О фильме: Захват американских заложников в Северной Корее вызвал бурю возмущения в Белом Доме. Президент Америки близок к тому, чтобы принять решение вмешаться и атаковать Корею. Тем временем в самом здании Белого Дома обнаружена убитая женщина, бывший секретарь.
Расследование поручено полицейскому детективу Харлану Реджису, до этого не связанному с правительственными и секретными службами. Именно с последними он натыкается на стену глухого молчания. В этом деле ему не разобраться без помощи очаровательной женщины - секретного агента Нины Ченс, потому что кому, как не ей лучше знать секретную службу изнутри.


Страна: США
Студия: Warner Bros., Regency Enterprises, 1600 Limited Partnership
Продолжительность: 01:46:42
Перевод 1: Дублированный | Варус-Видео
Перевод 2: Авторский | С. Визгунов

Файл
Формат: AVI
Качество: WEB-DLRip
Видео: XviD, 704x400, 1766 Kbps , 23.976 fps
Аудио 1: AC3, 48 KHz, 2 ch, 192 kbps | Русский | Дублированный | Варус-Видео | RUS | Убийство в Белом доме / Murder at 1600 (1997) WEB-DLRip от toxics & селезень | D, A
Аудио 2: AC3, 48 KHz, 2 ch, 192 kbps | Русский | Авторский | С. Визгунов | RUS |
Субтитры: Отсутствуют

Убийство в Белом доме / Murder at 1600 (1997) WEB-DLRip от toxics & селезень | D, A

Авторизуйтесь для получения доступа к скачиванию

Нет аккаунта? Регистрация открыта и займёт меньше минуты

Вход Регистрация

Общее
Полное имя : D:\Ubijstvo.v.Belom.dome.1997.D.A.1.46GB.WEB-DLRip.[toxics.and.seleZen].avi
Формат : AVI
Формат/Информация : Audio Video Interleave
Настройки формата : BitmapInfoHeader / WaveFormatEx
Размер файла : 1,47 Гбайт
Продолжительность : 1 ч. 46 м.
Общий поток : 1 966 Кбит/сек
Частота кадров : 23,976 кадра/сек
Программа кодирования : VirtualDubMod 1.5.10.3 | www.virtualdub-fr.org || (build 2550/release)
Библиотека кодирования : VirtualDubMod build 2550/release

Видео
Идентификатор : 0
Формат : MPEG-4 Visual
Профиль формата : Advanced Simple@L5
Настройки формата : BVOP1 / Custom Matrix
Параметр BVOP формата : 1
Параметр QPel формата : Нет
Параметр GMC формата : Без точки перехода
Параметр матрицы формата : Выборочная
Идентификатор кодека : XVID
Идентификатор кодека/Подсказка : XviD
Продолжительность : 1 ч. 46 м.
Битрейт : 1 568 Кбит/сек
Ширина : 704 пикселя
Высота : 400 пикселей
Соотношение сторон : 16:9
Частота кадров : 23,976 (24000/1001) кадра/сек
Цветовое пространство : YUV
Субдискретизация насыщенности : 4:2:0
Битовая глубина : 8 бит
Тип развёртки : Прогрессивная
Метод сжатия : С потерями
Бит/(Пиксели*Кадры) : 0.232
Размер потока : 1,17 Гбайт (80%)
Библиотека кодирования : XviD 73

Аудио #1
Идентификатор : 1
Формат : AC-3
Формат/Информация : Audio Coding 3
Коммерческое название : Dolby Digital
Идентификатор кодека : 2000
Продолжительность : 1 ч. 46 м.
Вид битрейта : Постоянный
Битрейт : 192 Кбит/сек
Каналы : 2 канала
Channel layout : L R
Частота : 48,0 КГц
Частота кадров : 31,250 кадров/сек (1536 SPF)
Метод сжатия : С потерями
Размер потока : 147 Мбайт (10%)
Выравнивание : Разделение по промежуткам
Продолжительность промежутка : 42 мс. (1,00 видеокадр)
Время предзагрузки промежутка : 500 мс.
Заголовок : DUB - Варус-Видео - Russian
Service kind : Complete Main

Аудио #2
Идентификатор : 2
Формат : AC-3
Формат/Информация : Audio Coding 3
Коммерческое название : Dolby Digital
Идентификатор кодека : 2000
Продолжительность : 1 ч. 46 м.
Вид битрейта : Постоянный
Битрейт : 192 Кбит/сек
Каналы : 2 канала
Channel layout : L R
Частота : 48,0 КГц
Частота кадров : 31,250 кадров/сек (1536 SPF)
Метод сжатия : С потерями
Размер потока : 147 Мбайт (10%)
Выравнивание : Разделение по промежуткам
Продолжительность промежутка : 42 мс. (1,00 видеокадр)
Время предзагрузки промежутка : 500 мс.
Заголовок : AVO - С. Визгунов - Russian
Service kind : Complete Main

Другие фильмы
У данной публикации пока нет комментариев.
Будь первым, оставь своё мнение в комментариях!
Информация
Посетители, находящиеся в группе Гости, не могут оставлять комментарии к данной публикации.
Самый популярный релиз недели
Донаты
Мы в соц. сетях / RSS

Лучшие релизы месяца
Лучшие SD недели
Лучшие 720p недели
Лучшие 1080p недели
Лучшие 4K недели
Вы недавно смотрели
Реклама
Последние комментарии
...

rmzshka

15 мая 2024 13:43

...

Andrey_Vladimirovich

13 мая 2024 18:12

...

Robot

13 мая 2024 16:53

...

rmzshka

13 мая 2024 16:21

...

supermehanik

13 мая 2024 02:03

Реклама